BitTorrentTracker PerecTracker.org
BitTorrentTracker PerecTracker.org
    
Регистрация  ·  Вход
 
 · 
Забыли пароль?

  • Джой / Joy (Дэвид О. Расселл / David O. Russell) [2015, США, драма, комедия, биография, BDRip 720p] Dub + Sub Rus, Ukr, Eng + Original Eng

    Ответить на тему
     
    Автор Сообщение

    Light

    Создавать темы 22-Апр-2016 16:48

           

    [Цитировать]

    Джой / Joy
    Страна: США
    Студия: Annapurna Pictures
    Жанр: драма, комедия, биография
    Год выпуска: 2015
    Продолжительность: 02:04:01
    Перевод: Профессиональный (дублированный)
    Cубтитры: Rus, Ukr, Eng
    Оригинальная аудиодорожка: английский
    Режиссер: Дэвид О. Расселл / David O. Russell
    В ролях: Дженнифер Лоуренс, Роберт Де Ниро, Брэдли Купер, Эдгар Рамирес, Даша Поланко, Вирджиния Мэдсен, Изабелла Росселлини, Изабелла Крамп, Элизабет Рём, Ондреа Гадсби
    Описание: Волнующая история четырех поколений семьи. В центре сюжета — девушка Джой, превращающаяся в женщину, которая становится основательницей бизнес-династии и ее главой. Предательство и измена, потеря невинности и шрамы любви открывают дорогу в эмоциональную комедию о том, как стать истинным лидером семьи, и о том, как любое предприятие неумолимо сталкивается с миром коммерции. Союзники и противники меняются местами как внутри, так и вне семьи, и только внутренние переживания и неистовое воображение Джой помогают ей пройти через поджидающие ее жизненные бури.

    Тип релиза: BDRip 720p
    Контейнер: MKV
    Видео: MPEG-4 AVC, 8000 Кбит/с, 1280x690, 23,976 fps
    Аудио: Rus, DTS, 768 kb/s (6 ch), 48 kHz
    Аудио 2: Eng, DTS, 1510 kb/s (6 ch), 48 kHz
    Формат субтитров: softsub (SRT)

    MediaInfo

    x264 [info]: frame I:1247 Avg QP:15.21 size:150870
    x264 [info]: frame P:37822 Avg QP:17.18 size: 72459
    x264 [info]: frame B:139336 Avg QP:18.32 size: 32340
    Format : Matroska
    Format version : Version 4 / Version 2
    File size : 8.90 GiB
    Duration : 2h 4mn
    Overall bit rate : 10.3 Mbps
    Movie name : Джой. (Tonik)
    Encoded date : UTC 2016-04-22 10:18:09
    Writing application : mkvmerge v7.1.0 ('Good Love') 64bit built on Jul 27 2014 13:06:55
    Writing library : libebml v1.3.0 + libmatroska v1.4.1
    _STATISTICS_WRITING_APP : mkvmerge v7.1.0 ('Good Love') 64bit built on Jul 27 2014 13:06:55
    _STATISTICS_WRITING_DATE_UTC : 2016-04-22 10:18:09
    _STATISTICS_TAGS : BPS DURATION NUMBER_OF_FRAMES NUMBER_OF_BYTES
    DURATION : 02:04:00.928000000
    NUMBER_OF_FRAMES : 697588
    NUMBER_OF_BYTES : 714330112
    Video
    ID : 1
    Format : AVC
    Format/Info : Advanced Video Codec
    Format profile : High@L4.1
    Format settings, CABAC : Yes
    Format settings, ReFrames : 9 frames
    Codec ID : V_MPEG4/ISO/AVC
    Duration : 2h 4mn
    Bit rate : 8 000 Kbps
    Width : 1 280 pixels
    Height : 690 pixels
    Display aspect ratio : 1.85:1
    Frame rate mode : Constant
    Frame rate : 23.976 fps
    Color space : YUV
    Chroma subsampling : 4:2:0
    Bit depth : 8 bits
    Scan type : Progressive
    Bits/(Pixel*Frame) : 0.378
    Stream size : 6.75 GiB (76%)
    Writing library : x264 core 148 r2665kMod a01e339
    Encoding settings : cabac=1 / ref=9 / deblock=1:-3:-3 / analyse=0x3:0x133 / me=umh / subme=11 / psy=1 / fade_compensate=0.00 / psy_rd=1.05:0.00 / mixed_ref=1 / me_range=32 / chroma_me=1 / trellis=2 / 8x8dct=1 / cqm=0 / deadzone=21,11 / fast_pskip=0 / chroma_qp_offset=-2 / threads=22 / lookahead_threads=3 / sliced_threads=0 / nr=0 / decimate=0 / interlaced=0 / bluray_compat=0 / constrained_intra=0 / fgo=0 / bframes=8 / b_pyramid=2 / b_adapt=2 / b_bias=0 / direct=3 / weightb=1 / open_gop=0 / weightp=2 / keyint=240 / keyint_min=24 / scenecut=40 / intra_refresh=0 / rc=2pass / mbtree=0 / bitrate=8000 / ratetol=1.0 / qcomp=0.70 / qpmin=0 / qpmax=69 / qpstep=4 / cplxblur=20.0 / qblur=0.5 / ip_ratio=1.20 / pb_ratio=1.20 / aq=3:0.85
    Language : English
    Default : Yes
    Forced : No
    _STATISTICS_WRITING_APP : mkvmerge v7.1.0 ('Good Love') 64bit built on Jul 27 2014 13:06:55
    _STATISTICS_WRITING_DATE_UTC : 2016-04-22 10:18:09
    _STATISTICS_TAGS : BPS DURATION NUMBER_OF_FRAMES NUMBER_OF_BYTES
    DURATION : 02:04:00.976000000
    NUMBER_OF_FRAMES : 178405
    NUMBER_OF_BYTES : 7434854291
    Audio #1
    ID : 2
    Format : DTS
    Format/Info : Digital Theater Systems
    Mode : 16
    Format settings, Endianness : Big
    Codec ID : A_DTS
    Duration : 2h 4mn
    Bit rate mode : Constant
    Bit rate : 768 Kbps
    Channel(s) : 6 channels
    Channel positions : Front: L C R, Side: L R, LFE
    Sampling rate : 48.0 KHz
    Bit depth : 24 bits
    Compression mode : Lossy
    Stream size : 681 MiB (7%)
    Language : Russian
    Default : Yes
    Forced : No
    Audio #2
    ID : 3
    Format : DTS
    Format/Info : Digital Theater Systems
    Mode : 16
    Format settings, Endianness : Big
    Codec ID : A_DTS
    Duration : 2h 4mn
    Bit rate mode : Constant
    Bit rate : 1 509 Kbps
    Channel(s) : 6 channels
    Channel positions : Front: L C R, Side: L R, LFE
    Sampling rate : 48.0 KHz
    Bit depth : 24 bits
    Compression mode : Lossy
    Stream size : 1.31 GiB (15%)
    Language : English
    Default : No
    Forced : No
    Text #1
    ID : 4
    Format : UTF-8
    Codec ID : S_TEXT/UTF8
    Codec ID/Info : UTF-8 Plain Text
    Language : Russian
    Default : No
    Forced : No
    Text #2
    ID : 5
    Format : UTF-8
    Codec ID : S_TEXT/UTF8
    Codec ID/Info : UTF-8 Plain Text
    Language : Ukrainian
    Default : No
    Forced : No
    Text #3
    ID : 6
    Format : UTF-8
    Codec ID : S_TEXT/UTF8
    Codec ID/Info : UTF-8 Plain Text
    Language : English
    Default : No
    Forced : No
    Menu
    00:00:00.000 : en:Chapter 01
    00:06:14.082 : en:Chapter 03
    00:09:54.093 : en:Chapter 05
    00:13:43.030 : en:Chapter 07
    00:19:26.748 : en:Chapter 09
    00:22:54.831 : en:Chapter 11
    00:28:09.312 : en:Chapter 13
    00:32:45.672 : en:Chapter 15
    00:36:53.628 : en:Chapter 17
    00:44:02.806 : en:Chapter 19
    00:48:17.019 : en:Chapter 21
    00:53:25.827 : en:Chapter 23
    00:56:57.914 : en:Chapter 25
    01:01:13.127 : en:Chapter 27
    01:06:48.671 : en:Chapter 29
    01:12:52.493 : en:Chapter 31
    01:16:56.445 : en:Chapter 33
    01:20:53.765 : en:Chapter 35
    01:26:14.210 : en:Chapter 37
    01:30:24.836 : en:Chapter 39
    01:35:51.078 : en:Chapter 41
    01:41:28.707 : en:Chapter 43
    01:47:24.354 : en:Chapter 45
    01:53:58.623 : en:Chapter 47
    02:04:00.683 : en:Chapter 49

    Скриншоты

    Замена Русской дорожки.
    Скачать .torrent

    Скачать торрент-файл бесплатно и на максимальной скорости!

    Как скачивать? · Что такое торрент? · Рейтинг и ограничения

    !ВНИМАНИЕ!
    Сайт не распространяет и не хранит электронные версии произведений, а занимается лишь лишь предоставлением доступа к создаваемому пользователями каталогу ссылок на торрент-файлы, которые содержат только списки хеш-сумм, убедительная просьба с жалобами обращаться напрямую к пользователю. Файлы для обмена на трекере предоставлены пользователями сайта, и администрация не несёт ответственности за их содержание. Просьба не заливать файлы, защищенные авторскими правами, а также файлы нелегального содержания!


    _________________
    [Профиль] [ЛС]
    Показать сообщения:    
    Ответить на тему

    Текущее время: Сегодня, в 05:24

    Часовой пояс: GMT + 2



    Вы не можете начинать темы
    Вы не можете отвечать на сообщения
    Вы не можете редактировать свои сообщения
    Вы не можете удалять свои сообщения
    Вы не можете голосовать в опросах
    Вы не можете прикреплять файлы к сообщениям
    Вы не можете скачивать файлы