BitTorrentTracker PerecTracker.org
BitTorrentTracker PerecTracker.org
    
Регистрация  ·  Вход
 
 · 
Забыли пароль?

  • По вине ягнёнка / Damn lamb / La Culpa del Cordero (Габриэль Драк / Gabriel Drak) [2012, Уругвай, Аргентина, Драма, комедия, DVDRip] + Sub Rus + Original Spa

    Ответить на тему
     
    Автор Сообщение

    Light

    Создавать темы 22-Апр-2016 00:15

           

    [Цитировать]

    По вине ягнёнка / Damn lamb / La Culpa del Cordero
    Страна: Уругвай, Аргентина
    Жанр: Драма, комедия
    Год выпуска: 2012
    Продолжительность: 01:21:01
    Перевод: Субтитры
    Cубтитры: русские: creo140
    Оригинальная аудиодорожка: испанский
    Режиссер: Габриэль Драк / Gabriel Drak
    В ролях: Матео Кьярино, Рикардо Коуту, Паула Драк, Рожелио Грация, Сусана Гройсман, Эрнесто Лиотти, Мариана Оливера
    Описание: Хорхе и Елена женаты уже тридцать пять лет. После недавнего выхода на пенсию Хорхе, у пары произошли большие изменения в жизни. Они переехали за город и решили пригласить своих четверых детей на обед, в загородном доме, недалеко от моря. Пройдёт всего несколько часов и все секреты идеальной семьи будут раскрыты.
    Доп. информация:

    Сэмпл: http://multi-up.com/1098497
    Качество видео: DVDRip
    Формат видео: AVI
    Видео: Xvid 720x360 23.976fps 1865kbps
    Аудио: Dolby AC3 48000Hz stereo 192kbps
    Формат субтитров: softsub (SRT)

    Фрагмент субтитров

    230
    00:18:46,800 --> 00:18:48,739
    Сегодня будет небольшой ветер.
    231
    00:18:50,746 --> 00:18:52,479
    Ну а теперь,
    вы можете рассказать нам,
    232
    00:18:52,546 --> 00:18:54,079
    зачем мы здесь,
    сегодня собрались?
    233
    00:18:54,417 --> 00:18:55,505
    А что, вам так сложно,
    234
    00:18:55,517 --> 00:18:57,545
    провести некоторое
    время со своей семьей?
    235
    00:18:58,254 --> 00:18:59,243
    Ты так говоришь,
    как будто вас здесь пытают.
    236
    00:18:59,455 --> 00:19:00,547
    А сейчас поговорим
    о правах человека!
    237
    00:19:00,790 --> 00:19:02,655
    Да ладно, пап,
    за что мы выпьем?
    238
    00:19:02,825 --> 00:19:04,417
    Подожди-ка!
    А твой сотовый?
    239
    00:19:05,161 --> 00:19:07,823
    Вы и ваши чертовы мобильники!
    240
    00:19:09,632 --> 00:19:13,591
    Оружие и мобильные телефоны
    не допускаются в этом доме.
    241
    00:19:13,669 --> 00:19:15,034
    И никакого интернета!
    242
    00:19:15,238 --> 00:19:18,674
    И ничего, что может испортить
    этот замечательный мир.
    243
    00:19:19,075 --> 00:19:20,042
    Таковы мои правила.
    244
    00:19:20,109 --> 00:19:22,475
    Мы всё поняли, Елена.
    Теперь мы можем продолжать?

    MediaInfo

    Format : AVI
    Format/Info : Audio Video Interleave
    File size : 1.17 GiB
    Duration : 1h 21mn
    Overall bit rate : 2 065 Kbps
    Writing application : VirtualDubMod 1.5.10.2 (build 2542/release)
    Writing library : VirtualDubMod build 2542/release
    Video
    ID : 0
    Format : MPEG-4 Visual
    Format profile : Simple@L3
    Format settings, BVOP : No
    Format settings, QPel : No
    Format settings, GMC : No warppoints
    Format settings, Matrix : Default (H.263)
    Codec ID : XVID
    Codec ID/Hint : XviD
    Duration : 1h 21mn
    Bit rate : 1 866 Kbps
    Width : 720 pixels
    Height : 360 pixels
    Display aspect ratio : 2.000
    Frame rate : 23.976 fps
    Color space : YUV
    Chroma subsampling : 4:2:0
    Bit depth : 8 bits
    Scan type : Progressive
    Compression mode : Lossy
    Bits/(Pixel*Frame) : 0.300
    Stream size : 1.06 GiB (90%)
    Writing library : XviD 64
    Audio
    ID : 1
    Format : AC-3
    Format/Info : Audio Coding 3
    Mode extension : CM (complete main)
    Format settings, Endianness : Big
    Codec ID : 2000
    Duration : 1h 21mn
    Bit rate mode : Constant
    Bit rate : 192 Kbps
    Channel(s) : 2 channels
    Channel positions : Front: L R
    Sampling rate : 48.0 KHz
    Compression mode : Lossy
    Stream size : 111 MiB (9%)
    Alignment : Split accross interleaves
    Interleave, duration : 64 ms (1.53 video frames)
    Interleave, preload duration : 500 ms

    Скриншот c названием фильма

    Скриншоты

    Скачать .torrent

    Скачать торрент-файл бесплатно и на максимальной скорости!

    Как скачивать? · Что такое торрент? · Рейтинг и ограничения

    !ВНИМАНИЕ!
    Сайт не распространяет и не хранит электронные версии произведений, а занимается лишь лишь предоставлением доступа к создаваемому пользователями каталогу ссылок на торрент-файлы, которые содержат только списки хеш-сумм, убедительная просьба с жалобами обращаться напрямую к пользователю. Файлы для обмена на трекере предоставлены пользователями сайта, и администрация не несёт ответственности за их содержание. Просьба не заливать файлы, защищенные авторскими правами, а также файлы нелегального содержания!


    _________________
    [Профиль] [ЛС]
    Показать сообщения:    
    Ответить на тему

    Текущее время: Сегодня, в 16:20

    Часовой пояс: GMT + 2



    Вы не можете начинать темы
    Вы не можете отвечать на сообщения
    Вы не можете редактировать свои сообщения
    Вы не можете удалять свои сообщения
    Вы не можете голосовать в опросах
    Вы не можете прикреплять файлы к сообщениям
    Вы не можете скачивать файлы