BitTorrentTracker PerecTracker.org
BitTorrentTracker PerecTracker.org
    
Регистрация  ·  Вход
 
 · 
Забыли пароль?

  • Отчаянные Домохозяйки / Desperate Housewives / Сезон 6 / Серия 01-23 (23) [2009-2010 г., драма, мелодрама, комедия, детектив, WEB-DL HD (720p)]

    Ответить на тему
     
    Автор Сообщение

    rechyn

    Создавать темы 21-Апр-2016 22:31

           

    [Цитировать]

    Отчаянные Домохозяйки / Desperate Housewives
    «Secrets. Romance. Murder. All On One Street.»
    -Общая информация
    Год выпуска: 2009-2010
    Страна: США
    Жанр: Comedy, Drama, Mystery
    Жанр iTunes: Drama
    Продолжительность: ~ 0:43:00
    Перевод: Полное дублирование (НЕВАФИЛЬМ)
    Видео:
    720p - H.264, ~4000 kbps avg, 1280 x 720 (16:9), 23.976 fps
    Аудио:
    АAC 2.0 160 kbps - Полное дублирование (НЕВАФИЛЬМ)
    АAC 2.0 160 kbps - Английский - Оригинал
    АС3 5.1 448 kbps - Английский - Оригинал
    Cубтитры:
    3GPP Text - Русские-Создатели и актеры
    Режиссёр:
    Дэвид Гроссман, Ларри Шоу, Дэвид Уоррен
    Сценарий:
    Марк Черри, Александра Каннингэм, Джои Мерфи
    Продюсер:
    Чарльз Скурас III, Марк Черри, Джордж В. Перкинс
    В ролях:
    Тери Хэтчер, Фелисити Хаффман, Марсия Кросс, Ева Лонгория, Николетт Шеридан, Бренда Стронг, Джеймс Дентон, Даг Сэвант, Рикардо Чавира, Шон Пайфром-Описание :
    В центре событий — четыре современные домохозяйки, которые живут в тихом пригороде и отчаянно ищут личного счастья.
    Сьюзан осталась одна после того, как муж променял её на секретаршу. Бывшая фотомодель, а ныне неверная жена, Габриель вышла замуж по расчёту, а потом поняла, что нуждается не в деньгах, а в настоящей любви, и завела роман с юным садовником. Бри пытается сохранить разваливающийся брак и найти общий язык с сыном-наркоманом и слишком рано повзрослевшей дочерью. Линнет поставила крест на блестящей карьере в крупной компании, чтобы посвятить всё свое время воспитанию детей.
    Внезапное самоубийство их подружки Мэри Элис Янг оставляет всех в недоумении и заставляет искать разгадку ее смерти. Мэри расстается с жизнью, но обретает способность проникать во все секреты, спрятанные за наглухо закрытыми дверями этого благополучного американского пригорода.-

    Desperate Housewives, Season 6

    01. «Nice Is Different Than Good» / «"Милая" не значит "хорошая"»
    02. «Being Alive» / «Выжить»
    03. «Never Judge a Lady by Her Lover» / «Не судите о даме по ее возлюбленному»
    04. «The God-Why-Don’t-You-Love-Me Blues» / «Блюз "господи-почему-ты-меня-не-любишь"»
    05. «Everybody Ought to Have a Maid» / «У каждого должна быть горничная»
    06. «Don’t Walk on the Grass» / «По газонам не ходить»
    07. «Careful the Things You Say» / «Думай, о чем говоришь»
    08. «The Coffee Cup» / «Кофейная чашка»
    09. «Would I Think of Suicide?» / «Кому бы могло прийти в голову самоубийство?»
    10. «Boom Crunch» / «Удар»
    11. «If…» / «Если бы…»
    12. «You Gotta Get a Gimmick» / «Надо только придумать хитрость»
    13. «How About a Friendly Shrink?» / «Как насчет симпатичного психотерапевта?»
    14. «The Glamorous Life» / «Красивая жизнь»
    15. «Lovely» / «Прелесть»
    16. «The Chase» / «Преследование»
    17. «Chromolume № 7» / «Хромолюм №7»
    18. «My Two Young Men» / «Мои два юноши»
    19. «We All Deserve to Die» / «Мы все заслуживаем смерти»
    20. «Epiphany» / «Прозрение»
    21. «A Little Night Music» / «Маленькая ночная серенада»
    22. «The Ballad of Booth» / «Баллада о Буте»
    23. «I Guess This Is Goodbye» / «Думаю, настало время прощаться»

    Технические данные сериала:

    iTunes MetaTag "01 Nice Is Different Than Good (HD).m4v":

    Sort Album: Desperate Housewives, Season 6
    XID: FoxTV:vendor_id:ABC_Desperate_Housewives_601
    playlistID: 329072823
    artistID: 81826814
    contentID: 333245668
    Copyright: © ABC Studios. All Rights Reserved.
    Rating: 11
    Long Description: Mike gets married and his bride is finally revealed will it be Katherine or Susan? Meanwhile, Lynette deals with the realities of being pregnant again; Bree works to break free from Orson; Gaby is tested by Carlos' niece who continues to stay with them; and a new family with dark secrets moves to Wisteria.
    Description: Mike gets married and his bride is finally revealed will it be Katherine or Susan? Meanwhile, Lynette deals with the realities of being pregnant again; Bree works to break free from Orson; Gaby is tested by Carlos' niece who continues to stay with th
    TV Season: 6
    TV Episode ID: 601
    TV Network: ABC
    TV Episode #: 1
    TV Show: Desperate Housewives
    Disk #: 1/1
    Track #: 1/0
    Release Date: 2009-09-27T07:00:00Z
    Genre: Drama
    Album: Desperate Housewives
    Album Artist: Desperate Housewives
    Artist: Desperate Housewives
    Name: Nice Is Different Than Good

    MediaInfo "01 Nice Is Different Than Good (HD).m4v":

    Общее
    Полное имя                               : \TV Shows\Desperate Housewives\Season 6 Nice Is Different Than Good (HD).m4v
    Формат                                   : MPEG-4
    Профиль формата                          : Apple audio with iTunes info
    Идентификатор кодека                     : M4A
    Размер файла                             : 1,46 Гбайт
    Продолжительность                        : 43 м.
    Режим общего битрейта                    : Переменный
    Общий поток                              : 4778 Кбит/сек
    Название фильма                          : Nice Is Different Than Good
    Альбом                                   : Desperate Housewives
    Альбом/Исполнитель                       : Desperate Housewives
    Часть/Положение                          : 1
    Часть/Всего                              : 1
    Трек/Положение                           : 1
    Исполнитель                              : Desperate Housewives
    Жанр                                     : Drama
    Дата записи                              : UTC 2009-09-27 07:00:00
    Дата кодирования                         : UTC 2013-10-25 17:45:15
    Дата пометки                             : UTC 2013-10-27 08:08:13
    Правообладатель                          : © ABC Studios. All Rights Reserved.
    Обложка                                  : Yes
    tvsh                                     : Desperate Housewives
    tvnn                                     : ABC
    tvsn                                     : 6
    tves                                     : 1
    soal                                     : Desperate Housewives, Season 6
    desc                                     : Mike gets married and his bride is finally revealed will it be Katherine or Susan? Meanwhile, Lynette deals with the realities of being pregnant again; Bree works to break free from Orson; Gaby is tested by Carlos' niece who continues to stay with th
    ldes                                     : Mike gets married and his bride is finally revealed will it be Katherine or Susan? Meanwhile, Lynette deals with the realities of being pregnant again; Bree works to break free from Orson; Gaby is tested by Carlos' niece who continues to stay with them; and a new family with dark secrets moves to Wisteria.
    hdvd                                     : 1
    stik                                     : 10
    rtng                                     : 0
    cnID                                     : 333245668
    atID                                     : 81826814
    plID                                     : 329072823
    xid                                      : FoxTV:vendor_id:ABC_Desperate_Housewives_601
    iTunEXTC                                 : us-tv|TV-PG|400|
    tven                                     : 601
    Видео
    Идентификатор                            : 1
    Формат                                   : AVC
    Формат/Информация                        : Advanced Video Codec
    Профиль формата                          : High@L3.1
    Параметр CABAC формата                   : Нет
    Параметр ReFrames формата                : 2 кадра
    Идентификатор кодека                     : avc1
    Идентификатор кодека/Информация          : Advanced Video Coding
    Продолжительность                        : 43 м.
    Вид битрейта                             : Переменный
    Битрейт                                  : 4066 Кбит/сек
    Ширина                                   : 1280 пикселей
    Высота                                   : 720 пикселей
    Соотношение сторон                       : 16:9
    Режим частоты кадров                     : Переменный
    Частота кадров                           : 23,976 кадра/сек
    Минимальная частота кадров               : 23,810 кадра/сек
    Максимальная частота кадров              : 24,390 кадра/сек
    Цветовое пространство                    : YUV
    Субдискретизация насыщенности            : 4:2:0
    Битовая глубина                          : 8 бит
    Тип развёртки                            : Прогрессивная
    Бит/(Пиксели*Кадры)                      : 0.184
    Размер потока                            : 1,24 Гбайт (85%)
    Язык                                     : English
    Дата кодирования                         : UTC 2013-10-27 07:50:29
    Дата пометки                             : UTC 2013-10-27 07:53:56
    Основные цвета                           : BT.709
    Характеристики трансфера                 : BT.709
    Коэффициенты матрицы                     : BT.709
    Аудио #1
    Идентификатор                            : 2
    Формат                                   : AAC
    Формат/Информация                        : Advanced Audio Codec
    Профиль формата                          : LC
    Идентификатор кодека                     : 40
    Продолжительность                        : 43 м.
    Вид битрейта                             : Переменный
    Битрейт                                  : 160 Кбит/сек
    Максимальный битрейт                     : 165 Кбит/сек
    Каналы                                   : 2 канала
    Расположение каналов                     : Front: L R
    Частота                                  : 48,0 КГц
    Метод сжатия                             : С потерями
    Задержка видео                           : 42 мс.
    Размер потока                            : 49,9 Мбайт (3%)
    Язык                                     : Russian
    Дата кодирования                         : UTC 2013-10-25 17:45:15
    Дата пометки                             : UTC 2013-10-25 17:45:16
    Аудио #2
    Идентификатор                            : 3
    Формат                                   : AAC
    Формат/Информация                        : Advanced Audio Codec
    Профиль формата                          : LC
    Идентификатор кодека                     : 40
    Продолжительность                        : 43 м.
    Вид битрейта                             : Переменный
    Битрейт                                  : 160 Кбит/сек
    Максимальный битрейт                     : 165 Кбит/сек
    Каналы                                   : 2 канала
    Расположение каналов                     : Front: L R
    Частота                                  : 48,0 КГц
    Метод сжатия                             : С потерями
    Задержка видео                           : 62 мс.
    Размер потока                            : 49,9 Мбайт (3%)
    Язык                                     : English
    Дата кодирования                         : UTC 2013-10-27 07:50:29
    Дата пометки                             : UTC 2013-10-27 07:53:56
    Аудио #3
    Идентификатор                            : 4
    Формат                                   : AC-3
    Формат/Информация                        : Audio Coding 3
    Расширение режима                        : CM (complete main)
    Параметр Endianness формата              : Big
    Идентификатор кодека                     : ac-3
    Продолжительность                        : 43 м.
    Вид битрейта                             : Постоянный
    Битрейт                                  : 384 Кбит/сек
    Каналы                                   : 6 каналов
    Расположение каналов                     : Front: L C R, Side: L R, LFE
    Частота                                  : 48,0 КГц
    Битовая глубина                          : 16 бит
    Метод сжатия                             : С потерями
    Задержка видео                           : 42 мс.
    Размер потока                            : 120 Мбайт (8%)
    Язык                                     : English
    Дата кодирования                         : UTC 2013-10-27 07:50:29
    Дата пометки                             : UTC 2013-10-27 07:53:56
    Текст
    Идентификатор                            : 5
    Формат                                   : Timed text
    Режим смешивания                         : sbtl
    Идентификатор кодека                     : tx3g
    Продолжительность                        : 42 м.
    Вид битрейта                             : Переменный
    Битрейт                                  : 139 бит/сек
    Задержка видео                           : 42 мс.
    Размер потока                            : 43,6 Кбайт (0%)
    Язык                                     : Russian
    Дата кодирования                         : UTC 2013-10-27 07:50:29
    Дата пометки                             : UTC 2013-10-27 07:53:56

    Скриншоты:

    -
    Релиз подготовлен специально для просмотра на Apple TV, iPad.
    Пользователям Windows рекомендуется просматривать в VLC.
    Скачать .torrent

    Скачать торрент-файл бесплатно и на максимальной скорости!

    Как скачивать? · Что такое торрент? · Рейтинг и ограничения

    !ВНИМАНИЕ!
    Сайт не распространяет и не хранит электронные версии произведений, а занимается лишь лишь предоставлением доступа к создаваемому пользователями каталогу ссылок на торрент-файлы, которые содержат только списки хеш-сумм, убедительная просьба с жалобами обращаться напрямую к пользователю. Файлы для обмена на трекере предоставлены пользователями сайта, и администрация не несёт ответственности за их содержание. Просьба не заливать файлы, защищенные авторскими правами, а также файлы нелегального содержания!


    _________________
    [Профиль] [ЛС]
    Показать сообщения:    
    Ответить на тему

    Текущее время: Сегодня, в 10:42

    Часовой пояс: GMT + 2



    Вы не можете начинать темы
    Вы не можете отвечать на сообщения
    Вы не можете редактировать свои сообщения
    Вы не можете удалять свои сообщения
    Вы не можете голосовать в опросах
    Вы не можете прикреплять файлы к сообщениям
    Вы не можете скачивать файлы