BitTorrentTracker PerecTracker.org
BitTorrentTracker PerecTracker.org
    
Регистрация  ·  Вход
 
 · 
Забыли пароль?

  • Империя Солнца / Empire of the Sun (Стивен Спилберг / Steven Spielberg) [1987, США, драма, военный, история, BDRip 720p] Dub + MVO + 2x AVO (Володарский, Рябов) + Sub Rus (Forced, Full), Eng (x2) + Original Eng

    Ответить на тему
     
    Автор Сообщение

    Light

    Создавать темы 21-Апр-2016 20:06

           

    [Цитировать]

    Империя Солнца / Empire of the Sun
    Страна: США
    Студия: Amblin Entertainment, Warner Bros.
    Жанр: драма, военный, история
    Год выпуска: 1987
    Продолжительность: 02:32:49
    Перевод 1: Профессиональный (дублированный) Мост-Видео
    Перевод 2: Профессиональный (многоголосый закадровый)
    Перевод 3: Авторский (одноголосый закадровый) Л. Володарский
    Перевод 4: Авторский (одноголосый закадровый) С. Рябов
    Cубтитры: русские (форсированные, полные), английские, английские (SDH), французские, испанские (2 варианта), немецкие, итальянские, голландские, португальские, датские, финские, норвежские, шведские, вьетнамские
    Оригинальная аудиодорожка: английский
    Режиссер: Стивен Спилберг / Steven Spielberg
    В ролях: Кристиан Бэйл, Джон Малкович, Миранда Ричардсон, Найджел Хэверс, Джо Пантольяно, Лесли Филлипс, Масато Ибу, Эмили Ричард, Руперт Фрейзер, Питер Гэйл
    Описание: 1941 год, Вторая Мировая война. Юный англичанин Джим Грэхем живет в богатой семье в Китае. Японцы вторглись в Шанхай, Джим теряется в толпе и остается без родителей в захваченном городе. Во время скитаний находит друга Бэйзи, с которым попадает в лагерь заключенных.
    Среди болезни и нехватки пищи, Джим борется за выживание, вынося предательства и оскорбления… Нити, связывающие его с детством, ослабевают, но Джим пытается сохранить дух и достоинство. Япония капитулировала. Перенеся все ужасы войны, превратившись из счастливого ребенка в измученного подростка, он, наконец, встречается со своими родителями.- -Сэмпл: http://sendfile.su/1226243
    Тип релиза: BDRip 720p [EbP]
    Контейнер: MKV
    Видео: h.264, 1280x720, 23.976 fps, 11500 kbps
    Аудио #1: Russian: DTS 5.1, 48 kHz/24-bit, 1536 kbps avg |Дубляж, Мост-Видео|
    Аудио #2: Russian: AC3 2.0, 48 kHz, 192 kbps avg |Многоголосый закадровый|
    Аудио #3: Russian: AC3 2.0, 48 kHz, 192 kbps avg |Одноголосый закадровый, Л. Володарский|
    Аудио #4: Russian: DTS 5.1, 48 kHz/24-bit, 1536 kbps avg |Одноголосый закадровый, С. Рябов|
    Аудио #5: English: DTS 5.1, 48 kHz/24-bit, 1536 kbps avg |Оригинал|
    Формат субтитров: softsub (SRT)
    Цитата:
    Цитата:

    • Дорожка №1 сделана из оригинальной DTS-HD MA 5.1 дорожки и дублированной АС3 дорожки путём замены всех участков с английской речью, отголосками и эхом на аналогичные с дублированной дорожки во всех каналах. Японская речь не дублирована. Есть английские не дублированные фразы и в центре и в боковых каналах.
    • Дорожка №4 получена наложением чистого голоса на центр декодированного оригинала.
    • Сохранены оригинальные чаптеры как на Blu-Ray.
    • За ремукс спасибо krat11

    MediaInfo

    Complete name : E:\Empire.Of.The.Sun.1987.720p.REPACK.BluRay.4xRus.Eng.HDCLUB.mkv
    Format : Matroska
    Format version : Version 2
    File size : 17.9 GiB
    Duration : 2h 32mn
    Overall bit rate : 16.8 Mbps
    Movie name : Empire Of The Sun (1987) - Release for HDCLUB
    Encoded date : UTC 2016-04-13 11:07:02
    Writing application : mkvmerge v5.7.0 ('The Whirlwind') built on Jul 8 2012 20:08:51
    Writing library : libebml v1.2.3 + libmatroska v1.3.0
    Video
    ID : 1
    Format : AVC
    Format/Info : Advanced Video Codec
    Format profile : High@L4.1
    Format settings, CABAC : Yes
    Format settings, ReFrames : 9 frames
    Codec ID : V_MPEG4/ISO/AVC
    Duration : 2h 32mn
    Bit rate : 11.5 Mbps
    Width : 1 280 pixels
    Height : 720 pixels
    Display aspect ratio : 16:9
    Frame rate mode : Constant
    Frame rate : 23.976 (24000/1001) fps
    Color space : YUV
    Chroma subsampling : 4:2:0
    Bit depth : 8 bits
    Scan type : Progressive
    Bits/(Pixel*Frame) : 0.521
    Stream size : 12.3 GiB (69%)
    Writing library : x264 core 128 r2216 198a7ea
    Encoding settings : cabac=1 / ref=9 / deblock=1:-3:-3 / analyse=0x3:0x113 / me=tesa / subme=9 / psy=1 / psy_rd=1.15:0.00 / mixed_ref=1 / me_range=16 / chroma_me=1 / trellis=2 / 8x8dct=1 / cqm=0 / deadzone=21,11 / fast_pskip=0 / chroma_qp_offset=-2 / threads=12 / lookahead_threads=2 / sliced_threads=0 / nr=0 / decimate=0 / interlaced=0 / bluray_compat=0 / constrained_intra=0 / bframes=7 / b_pyramid=2 / b_adapt=2 / b_bias=0 / direct=3 / weightb=1 / open_gop=0 / weightp=2 / keyint=250 / keyint_min=23 / scenecut=40 / intra_refresh=0 / rc=crf / mbtree=0 / crf=15.3 / qcomp=0.55 / qpmin=0 / qpmax=69 / qpstep=4 / ip_ratio=1.40 / pb_ratio=1.30 / aq=1:0.55
    Language : English
    Default : Yes
    Forced : No
    Color range : Limited
    Matrix coefficients : BT.709
    Audio #1
    ID : 2
    Format : DTS
    Format/Info : Digital Theater Systems
    Mode : 16
    Format settings, Endianness : Big
    Codec ID : A_DTS
    Duration : 2h 32mn
    Bit rate mode : Constant
    Bit rate : 1 509 Kbps
    Channel(s) : 6 channels
    Channel positions : Front: L C R, Side: L R, LFE
    Sampling rate : 48.0 KHz
    Frame rate : 93.750 fps (512 spf)
    Bit depth : 24 bits
    Compression mode : Lossy
    Stream size : 1.61 GiB (9%)
    Title : |Дубляж, Мост-Видео|
    Language : Russian
    Default : Yes
    Forced : No
    Audio #2
    ID : 3
    Format : AC-3
    Format/Info : Audio Coding 3
    Mode extension : CM (complete main)
    Format settings, Endianness : Big
    Codec ID : A_AC3
    Duration : 2h 32mn
    Bit rate mode : Constant
    Bit rate : 192 Kbps
    Channel(s) : 2 channels
    Channel positions : Front: L R
    Sampling rate : 48.0 KHz
    Frame rate : 31.250 fps (1536 spf)
    Compression mode : Lossy
    Stream size : 210 MiB (1%)
    Title : |Многоголосый закадровый|
    Language : Russian
    Default : No
    Forced : No
    Audio #3
    ID : 4
    Format : AC-3
    Format/Info : Audio Coding 3
    Mode extension : CM (complete main)
    Format settings, Endianness : Big
    Codec ID : A_AC3
    Duration : 2h 32mn
    Bit rate mode : Constant
    Bit rate : 192 Kbps
    Channel(s) : 2 channels
    Channel positions : Front: L R
    Sampling rate : 48.0 KHz
    Frame rate : 31.250 fps (1536 spf)
    Compression mode : Lossy
    Stream size : 210 MiB (1%)
    Title : |Одноголосый закадровый, Володарский|
    Language : Russian
    Default : No
    Forced : No
    Audio #4
    ID : 5
    Format : DTS
    Format/Info : Digital Theater Systems
    Mode : 16
    Format settings, Endianness : Big
    Codec ID : A_DTS
    Duration : 2h 32mn
    Bit rate mode : Constant
    Bit rate : 1 509 Kbps
    Channel(s) : 6 channels
    Channel positions : Front: L C R, Side: L R, LFE
    Sampling rate : 48.0 KHz
    Frame rate : 93.750 fps (512 spf)
    Bit depth : 24 bits
    Compression mode : Lossy
    Stream size : 1.61 GiB (9%)
    Title : |Одноголосый закадровый, Рябов|
    Language : Russian
    Default : No
    Forced : No
    Audio #5
    ID : 6
    Format : DTS
    Format/Info : Digital Theater Systems
    Mode : 16
    Format settings, Endianness : Big
    Codec ID : A_DTS
    Duration : 2h 32mn
    Bit rate mode : Constant
    Bit rate : 1 509 Kbps
    Channel(s) : 6 channels
    Channel positions : Front: L C R, Side: L R, LFE
    Sampling rate : 48.0 KHz
    Frame rate : 93.750 fps (512 spf)
    Bit depth : 24 bits
    Compression mode : Lossy
    Stream size : 1.61 GiB (9%)
    Language : English
    Default : No
    Forced : No
    Text #1
    ID : 7
    Format : UTF-8
    Codec ID : S_TEXT/UTF8
    Codec ID/Info : UTF-8 Plain Text
    Title : Forced
    Language : Russian
    Default : Yes
    Forced : No
    Text #2
    ID : 8
    Format : UTF-8
    Codec ID : S_TEXT/UTF8
    Codec ID/Info : UTF-8 Plain Text
    Title : Full
    Language : Russian
    Default : No
    Forced : No
    Text #3
    ID : 9
    Format : UTF-8
    Codec ID : S_TEXT/UTF8
    Codec ID/Info : UTF-8 Plain Text
    Language : English
    Default : No
    Forced : No
    Text #4
    ID : 10
    Format : UTF-8
    Codec ID : S_TEXT/UTF8
    Codec ID/Info : UTF-8 Plain Text
    Title : SDH
    Language : English
    Default : No
    Forced : No
    Text #5
    ID : 11
    Format : UTF-8
    Codec ID : S_TEXT/UTF8
    Codec ID/Info : UTF-8 Plain Text
    Language : French
    Default : No
    Forced : No
    Text #6
    ID : 12
    Format : UTF-8
    Codec ID : S_TEXT/UTF8
    Codec ID/Info : UTF-8 Plain Text
    Language : Spanish
    Default : No
    Forced : No
    Text #7
    ID : 13
    Format : UTF-8
    Codec ID : S_TEXT/UTF8
    Codec ID/Info : UTF-8 Plain Text
    Language : Spanish
    Default : No
    Forced : No
    Text #8
    ID : 14
    Format : UTF-8
    Codec ID : S_TEXT/UTF8
    Codec ID/Info : UTF-8 Plain Text
    Language : German
    Default : No
    Forced : No
    Text #9
    ID : 15
    Format : UTF-8
    Codec ID : S_TEXT/UTF8
    Codec ID/Info : UTF-8 Plain Text
    Language : Italian
    Default : No
    Forced : No
    Text #10
    ID : 16
    Format : UTF-8
    Codec ID : S_TEXT/UTF8
    Codec ID/Info : UTF-8 Plain Text
    Language : Dutch
    Default : No
    Forced : No
    Text #11
    ID : 17
    Format : UTF-8
    Codec ID : S_TEXT/UTF8
    Codec ID/Info : UTF-8 Plain Text
    Language : Portuguese
    Default : No
    Forced : No
    Text #12
    ID : 18
    Format : UTF-8
    Codec ID : S_TEXT/UTF8
    Codec ID/Info : UTF-8 Plain Text
    Language : Danish
    Default : No
    Forced : No
    Text #13
    ID : 19
    Format : UTF-8
    Codec ID : S_TEXT/UTF8
    Codec ID/Info : UTF-8 Plain Text
    Language : Finnish
    Default : No
    Forced : No
    Text #14
    ID : 20
    Format : UTF-8
    Codec ID : S_TEXT/UTF8
    Codec ID/Info : UTF-8 Plain Text
    Language : Norwegian
    Default : No
    Forced : No
    Text #15
    ID : 21
    Format : UTF-8
    Codec ID : S_TEXT/UTF8
    Codec ID/Info : UTF-8 Plain Text
    Language : Swedish
    Default : No
    Forced : No
    Text #16
    ID : 22
    Format : UTF-8
    Codec ID : S_TEXT/UTF8
    Codec ID/Info : UTF-8 Plain Text
    Language : Vietnamese
    Default : No
    Forced : No
    Menu
    00:00:00.000 : en:1. Foreword [1:12]
    00:01:14.574 : en:2. The Choirboy [3:05]
    00:04:19.718 : en:3. Luckier [3:24]
    00:07:44.381 : en:4. Upward Dreams [1:38]
    00:09:22.520 : en:5. Partygoer Procession [3:56]
    00:13:19.215 : en:6. Hospitality [2:12]
    00:15:32.223 : en:7. Engaging the Enemy [5:13]
    00:20:46.287 : en:8. Shanghai: December 8, 1941 [2:48]
    00:23:34.997 : en:9. Lost in the Crowd [4:27]
    00:28:02.764 : en:10. Plunderers [4:12]
    00:32:15.142 : en:11. Home Alone [4:25]
    00:36:41.241 : en:12. English Boy Surrenders [5:04]
    00:41:46.254 : en:13. Making Frank's... [2:03]
    00:43:50.044 : en:14. Shanghai Jim [5:10]
    00:49:00.855 : en:15. Journey to Opulence [3:22]
    00:52:23.932 : en:16. New Occupants [1:55]
    00:54:19.256 : en:17. Chow Time [6:44]
    01:01:03.910 : en:18. The Truck to Soochow [4:34]
    01:05:38.393 : en:19. One With the Planes [2:42]
    01:08:21.097 : en:20. Kindred Spirits [1:34]
    01:09:55.858 : en:21. Tricks of the Trade [3:48]
    01:13:44.837 : en:22. The Antidote [:26]
    01:16:20.701 : en:23. New Word Pragmatist [2:09]
    01:20:20.315 : en:24. The University of Life [3:59]
    01:24:16.510 : en:25. Night Bombing [3:56]
    01:26:56.586 : en:26. Reprisal [2:39]
    01:30:19.456 : en:27. Setting the Traps [3:22]
    01:37:04.902 : en:28. In America Now [6:45]
    01:39:23.958 : en:29. Nagata's Revenge on... [2:18]
    01:42:58.839 : en:30. Lords of the Yangtze [3:34]
    01:47:11.008 : en:31. Basie Returns [4:12]
    01:48:50.441 : en:32. Kamikaze Dawn [1:39]
    01:52:21.234 : en:33. Bombs and Rapture [3:30]
    01:57:23.411 : en:34. Return to the British Dorm [5:01]
    01:59:08.641 : en:35. Broken Promise [1:45]
    02:01:27.572 : en:36. Failed Mission [2:18]
    02:03:14.429 : en:37. March to Nantao [1:46]
    02:05:00.451 : en:38. The Olympic Stadium [1:46]
    02:07:16.003 : en:39. "Pretend You're Dead" [2:15]
    02:09:11.911 : en:40. Heavenly Light [1:55]
    02:12:12.007 : en:41. Reunions [2:59]
    02:16:22.299 : en:42. "I Can Bring Everyone..." [4:10]
    02:20:10.277 : en:43. "I Surrender" [3:47]
    02:22:10.772 : en:44. Tired Eyes [2:00]
    02:26:17.811 : en:45. End Credits [4:06]

    Source vs Encode




    Скриншоты

    Скачать .torrent

    Скачать торрент-файл бесплатно и на максимальной скорости!

    Как скачивать? · Что такое торрент? · Рейтинг и ограничения

    !ВНИМАНИЕ!
    Сайт не распространяет и не хранит электронные версии произведений, а занимается лишь лишь предоставлением доступа к создаваемому пользователями каталогу ссылок на торрент-файлы, которые содержат только списки хеш-сумм, убедительная просьба с жалобами обращаться напрямую к пользователю. Файлы для обмена на трекере предоставлены пользователями сайта, и администрация не несёт ответственности за их содержание. Просьба не заливать файлы, защищенные авторскими правами, а также файлы нелегального содержания!


    _________________
    [Профиль] [ЛС]
    Показать сообщения:    
    Ответить на тему

    Текущее время: Сегодня, в 11:41

    Часовой пояс: GMT + 2



    Вы не можете начинать темы
    Вы не можете отвечать на сообщения
    Вы не можете редактировать свои сообщения
    Вы не можете удалять свои сообщения
    Вы не можете голосовать в опросах
    Вы не можете прикреплять файлы к сообщениям
    Вы не можете скачивать файлы