BitTorrentTracker PerecTracker.org
BitTorrentTracker PerecTracker.org
    
Регистрация  ·  Вход
 
 · 
Забыли пароль?

  • Сибирский цирюльник (Никита Михалков) [1998 г., Мелодрама, драма, DVDRip]

    Ответить на тему
     
    Автор Сообщение

    Flirldrerve

    Создавать темы 21-Апр-2016 15:54

           

    [Цитировать]

    Сибирский цирюльник--Страна: Россия, Франция, Италия, Чехия
    Жанр: Мелодрама, драма
    Продолжительность: 02:49:49
    Год выпуска: 1998
    -Перевод: не требуется
    Субтитры: нет
    Режиссёр: Никита Михалков
    -В ролях:
    Олег Меньшиков, Джулия Ормонд, Ричард Харрис, Алексей Петренко, Марина Неёлова, Владимир Ильин, Даниэль Ольбрыхский, Анна Михалкова, Марат Башаров, Никита Татаренков
    -Описание:
    Действие фильма происходит в годы правления Александра III. «Сибирский цирюльник» - паровая самоходная лесопилка, заказ на производство которой пытается получить в соответствующих российских государственных органах авантюрист Дуглас Маккрэкен. На подмогу к нему направляется обворожительная Джейн, в чью задачу входит, изображая дочь изобретателя, войти в доверие к чиновникам Комиссии по техническим нововведениям. По пути она знакомится с юнкером Андреем Толстым. Московской мишенью Джейн становится начальник юнкерского училища, он же заместитель председателя Комиссии, генерал Радлов. Генерал влюбляется в прелестную иностранку, она же симпатизирует Андрею. Последний со всем пылом русского офицера отвечает ей взаимностью. Развязка наступает в театре. Андрей, исполняющий роль Фигаро в студенческой постановке «Севильского цирюльника», в порыве ревности прямо со сцены бросается на Радлова. На беду Андрея в зале находится царевич Михаил и Великий князь Алексей Александрович, в покушении на которых Толстого и обвиняют. Бывшего юнкера, закованного в кандалы, отправляют в Сибирь. Удастся ли Андрею когда-нибудь увидеть Джейн и своего сына?...
    -Релиз групп All Films и RG Torrents.ru-Сэмпл: https://www.sendspace.com/file/qkjfcs-Качество: DVDRip - Исходник (Спасибо Нордер)
    Формат: AVI
    Видео: 720x304 (2.37:1), 25 fps, XviD build 73 ~1097 kbps avg, 0.20 bit/pixel
    Аудио: 48 kHz, MPEG Layer 3, 2 ch, ~128.00 kbps avg
    -

    Отчёт MediaInfo

    General
    Complete name : C:\Users\Максим\Desktop\Сибирский цирюльник DVDRip.avi
    Format : AVI
    Format/Info : Audio Video Interleave
    File size : 1.46 GiB
    Duration : 2h 49mn
    Overall bit rate : 1 235 Kbps
    Writing application : VirtualDubMod 1.5.10.3 | www.virtualdub-fr.org || (build 2550/release)
    Writing library : VirtualDubMod build 2550/release
    Video
    Format : MPEG-4 Visual
    Format profile : Streaming Video@L1
    Format settings, BVOP : Yes
    Format settings, QPel : No
    Format settings, GMC : No warppoints
    Format settings, Matrix : Custom
    Codec ID : XVID
    Codec ID/Hint : XviD
    Duration : 2h 49mn
    Bit rate : 1 097 Kbps
    Width : 720 pixels
    Height : 304 pixels
    Display aspect ratio : 2.35
    Frame rate : 25.000 fps
    Resolution : 24 bits
    Colorimetry : 4:2:0
    Scan type : Progressive
    Bits/(Pixel*Frame) : 0.201
    Stream size : 1.30 GiB (89%)
    Writing library : XviD 73
    Audio
    Format : MPEG Audio
    Format version : Version 1
    Format profile : Layer 3
    Codec ID : 55
    Codec ID/Hint : MP3
    Duration : 2h 49mn
    Bit rate mode : Constant
    Bit rate : 128 Kbps
    Channel(s) : 2 channels
    Sampling rate : 48.0 KHz
    Resolution : 16 bits
    Stream size : 155 MiB (10%)
    Alignment : Aligned on interleaves
    Interleave, duration : 40 ms (1.00 video frame)
    Interleave, preload duration : 504 ms
    Writing library : LAME3.99r
    Encoding settings : -m s -V 4 -q 2 -lowpass 17 -b 128

    -

    Скриншоты

    -
    |
    Скачать .torrent

    Скачать торрент-файл бесплатно и на максимальной скорости!

    Как скачивать? · Что такое торрент? · Рейтинг и ограничения

    !ВНИМАНИЕ!
    Сайт не распространяет и не хранит электронные версии произведений, а занимается лишь лишь предоставлением доступа к создаваемому пользователями каталогу ссылок на торрент-файлы, которые содержат только списки хеш-сумм, убедительная просьба с жалобами обращаться напрямую к пользователю. Файлы для обмена на трекере предоставлены пользователями сайта, и администрация не несёт ответственности за их содержание. Просьба не заливать файлы, защищенные авторскими правами, а также файлы нелегального содержания!


    _________________
    [Профиль] [ЛС]
    Показать сообщения:    
    Ответить на тему

    Текущее время: Сегодня, в 10:39

    Часовой пояс: GMT + 2



    Вы не можете начинать темы
    Вы не можете отвечать на сообщения
    Вы не можете редактировать свои сообщения
    Вы не можете удалять свои сообщения
    Вы не можете голосовать в опросах
    Вы не можете прикреплять файлы к сообщениям
    Вы не можете скачивать файлы