BitTorrentTracker PerecTracker.org
BitTorrentTracker PerecTracker.org
    
Регистрация  ·  Вход
 
 · 
Забыли пароль?

  • Лили Давид / Lili David (Кристоф Барро / Christophe Barraud) [2012, Франция, комедия, SATRip] MVO (Комедия ТВ)

    Ответить на тему
     
    Автор Сообщение

    Light

    Создавать темы 21-Апр-2016 07:30

           

    [Цитировать]

    Лили Давид / Lili David
    Страна: Франция
    Жанр: комедия
    Год выпуска: 2012
    Продолжительность: 01:30:09
    Перевод: Профессиональный (многоголосый закадровый) Комедия ТВ
    Cубтитры: нет
    Оригинальная аудиодорожка: нет
    Режиссер: Кристоф Барро / Christophe Barraud
    В ролях: Жюли-Анна Рот
    Матьё Делярев
    Сальваторе Адамо
    Паскаль Обер
    Кристоф Барро
    Жерар Бэйл
    Nathaël Berthier
    Джефф Бижо
    Céline Brettes
    Sophie Carnet
    Описание: Лили Давид 32 года, у нее есть сын — 12-летний подросток и новый босс — теперешняя жена ее бывшего мужа. Работа Лили состоит в исполнении пожеланий и прихотей клиентов фирмы You4You, специализирующейся на организации мероприятий любого рода: от свадеб и вечеринок до охоты, и зачастую запросы клиентов оказываются на грани возможного, будь то срочный поиск частного самолета или приглашение Майкла Джексона на чей-то день рождения…
    Сэмпл: http://multi-up.com/1098395
    Качество видео: SATRip
    Формат видео: AVI
    Видео: MPEG4, XviD, 720x400 (16:9), 25.000 fps, 1 973 Kbps (0.274 bit/pixel)
    Аудио: AC-3, 48.0 KHz, 2 ch, 192 Kbps, CBR

    MediaInfo

    Общее
    Полное имя : M:\Лили Давид.avi
    Формат : AVI
    Формат/Информация : Audio Video Interleave
    Размер файла : 1,37 Гбайт
    Продолжительность : 1 ч. 30 м.
    Общий поток : 2175 Кбит/сек
    Название фильма : Лили Давид / Lili David (2012)
    Программа кодирования : VirtualDubMod 1.5.10.2 (build 2540/release)
    Библиотека кодирования : VirtualDubMod build 2540/release
    Авторское право : miha2154
    Видео
    Идентификатор : 0
    Формат : MPEG-4 Visual
    Профиль формата : Advanced Simple@L5
    Параметр BVOP формата : 1
    Параметр QPel формата : Нет
    Параметр GMC формата : Без точки перехода
    Параметр матрицы формата : Выборочная
    Идентификатор кодека : XVID
    Идентификатор кодека/Подсказка : XviD
    Продолжительность : 1 ч. 30 м.
    Битрейт : 1973 Кбит/сек
    Ширина : 720 пикселей
    Высота : 400 пикселей
    Соотношение сторон : 16:9
    Частота кадров : 25,000 кадров/сек
    Цветовое пространство : YUV
    Субдискретизация насыщенности : 4:2:0
    Битовая глубина : 8 бит
    Тип развёртки : Прогрессивная
    Метод сжатия : С потерями
    Бит/(Пиксели*Кадры) : 0.274
    Размер потока : 1,24 Гбайт (91%)
    Библиотека кодирования : XviD 65
    Аудио
    Идентификатор : 1
    Формат : AC-3
    Формат/Информация : Audio Coding 3
    Расширение режима : CM (complete main)
    Параметр Endianness формата : Big
    Идентификатор кодека : 2000
    Продолжительность : 1 ч. 30 м.
    Вид битрейта : Постоянный
    Битрейт : 192 Кбит/сек
    Каналы : 2 канала
    Расположение каналов : Front: L R
    Частота : 48,0 КГц
    Частота кадров : 31,250 кадров/сек (1536 spf)
    Метод сжатия : С потерями
    Размер потока : 124 Мбайт (9%)
    Выравнивание : Разделение по промежуткам
    Продолжительность промежутка : 40 мс. (1,00 видеокадр)
    Время предзагрузки промежутка : 500 мс.
    Заголовок : Профессиональный (многоголосый закадровый) Комедия ТВ

    Скриншоты


    Скачать .torrent

    Скачать торрент-файл бесплатно и на максимальной скорости!

    Как скачивать? · Что такое торрент? · Рейтинг и ограничения

    !ВНИМАНИЕ!
    Сайт не распространяет и не хранит электронные версии произведений, а занимается лишь лишь предоставлением доступа к создаваемому пользователями каталогу ссылок на торрент-файлы, которые содержат только списки хеш-сумм, убедительная просьба с жалобами обращаться напрямую к пользователю. Файлы для обмена на трекере предоставлены пользователями сайта, и администрация не несёт ответственности за их содержание. Просьба не заливать файлы, защищенные авторскими правами, а также файлы нелегального содержания!


    _________________
    [Профиль] [ЛС]
    Показать сообщения:    
    Ответить на тему

    Текущее время: Сегодня, в 18:36

    Часовой пояс: GMT + 2



    Вы не можете начинать темы
    Вы не можете отвечать на сообщения
    Вы не можете редактировать свои сообщения
    Вы не можете удалять свои сообщения
    Вы не можете голосовать в опросах
    Вы не можете прикреплять файлы к сообщениям
    Вы не можете скачивать файлы