BitTorrentTracker PerecTracker.org
BitTorrentTracker PerecTracker.org
    
Регистрация  ·  Вход
 
 · 
Забыли пароль?

  • Джой / Joy (Дэвид О. Расселл / David O. Russell) [2015, США, драма, комедия, биография, BDRip-AVC] Dub + Original + Sub (rus, eng)

    Ответить на тему
     
    Автор Сообщение

    Light

    Создавать темы 21-Апр-2016 07:30

           

    [Цитировать]

    Джой / Joy«In America the ordinary needs the extraordinary every single day»-Страна: США
    Жанр: драма, комедия, биография
    Год выпуска: 2015
    Продолжительность: 02:04:03
    Перевод: Профессиональный (полное дублирование) (iTunes)
    Оригинальная аудиодорожка: английский
    Cубтитры: (полные) русские, английские
    Навигация по главам: есть
    Режиссер: Дэвид О. Расселл / David O. Russell
    В ролях: Дженнифер Лоуренс, Роберт Де Ниро, Брэдли Купер, Эдгар Рамирес, Даша Поланко, Вирджиния Мэдсен, Изабелла Росселлини, Изабелла Крамп, Элизабет Рём, Ондреа Гадсби
    Описание: Волнующая история четырех поколений семьи. В центре сюжета — девушка Джой, превращающаяся в женщину, которая становится основательницей бизнес-династии и ее главой. Предательство и измена, потеря невинности и шрамы любви открывают дорогу в эмоциональную комедию о том, как стать истинным лидером семьи, и о том, как любое предприятие неумолимо сталкивается с миром коммерции. Союзники и противники меняются местами как внутри, так и вне семьи, и только внутренние переживания и неистовое воображение Джой помогают ей пройти через поджидающие ее жизненные бури.

    Качество видео: BDRip-AVC (исходник - BDRemux|JOY_2015_REMUX_HDCLUB)
    Формат видео: MKV
    Видео: x264, 1024x554 (1.85:1), 23,976 fps, ~2585 kbps, 0.190 bit/pixel
    Аудио 1: 48 kHz, AC3 Dolby Digital, 3/2 (L,C,R,l,r) + LFE ch, ~384 kbps [русский]
    Аудио 2: 48 kHz, AC3 Dolby Digital, 3/2 (L,C,R,l,r) + LFE ch, ~384 kbps [английский]
    Формат субтитров: softsub (SRT)
    MediaInfo | x264 log
    Format : Matroska
    Format version : Version 4 / Version 2
    File size : 2.91 GiB
    Duration : 2h 4mn
    Overall bit rate : 3 353 Kbps
    Movie name : Джой / Joy (2015) :: AFM ::
    Encoded date : UTC 2016-04-21 00:34:16
    Writing application : mkvmerge v8.3.0 ('Over the Horizon') 32bit
    Writing library : libebml v1.3.1 + libmatroska v1.4.2
    Video
    ID : 1
    Format : AVC
    Format/Info : Advanced Video Codec
    Format profile : High@L4.1
    Format settings, CABAC : Yes
    Format settings, ReFrames : 10 frames
    Codec ID : V_MPEG4/ISO/AVC
    Duration : 2h 4mn
    Bit rate : 2 585 Kbps
    Width : 1 024 pixels
    Height : 554 pixels
    Display aspect ratio : 1.85:1
    Frame rate mode : Constant
    Frame rate : 23.976 fps
    Color space : YUV
    Chroma subsampling : 4:2:0
    Bit depth : 8 bits
    Scan type : Progressive
    Bits/(Pixel*Frame) : 0.190
    Stream size : 2.18 GiB (75%)
    Title : BDRip by AFM [RuTracker.org]
    Writing library : x264 core 148 r2692+54 69a6f49 t_mod_Custom [8-bit@all X86_64]
    Encoding settings : cabac=1 / ref=10 / deblock=1:-2:-2 / analyse=0x3:0x113 / me=umh / subme=10 / psy=1 / fade_compensate=0.00 / psy_rd=1.00:0.00 / mixed_ref=1 / me_range=32 / chroma_me=1 / trellis=2 / 8x8dct=1 / cqm=0 / deadzone=21,11 / fast_pskip=0 / chroma_qp_offset=-2 / threads=6 / lookahead_threads=1 / sliced_threads=0 / nr=0 / decimate=0 / interlaced=0 / bluray_compat=0 / constrained_intra=0 / fgo=0 / bframes=13 / b_pyramid=2 / b_adapt=2 / b_bias=0 / direct=1 / weightb=1 / open_gop=0 / weightp=2 / keyint=250 / keyint_min=23 / scenecut=40 / intra_refresh=0 / rc_lookahead=40 / rc=2pass / mbtree=0 / bitrate=2585 / ratetol=1.0 / qcomp=0.65 / qpmin=0:0:0 / qpmax=69:69:69 / qpstep=4 / cplxblur=20.0 / qblur=0.5 / vbv_maxrate=50000 / vbv_bufsize=62500 / nal_hrd=none / filler=0 / ip_ratio=1.28 / pb_ratio=1.30 / aq=1:0.90 / aq-sensitivity=10.00 / aq-factor=1.00:1.00:1.00 / aq2=0 / aq3=0 / zones=167600,178448,q=30
    Language : English
    Default : Yes
    Forced : No
    Audio #1
    ID : 2
    Format : AC-3
    Format/Info : Audio Coding 3
    Mode extension : CM (complete main)
    Format settings, Endianness : Big
    Codec ID : A_AC3
    Duration : 2h 4mn
    Bit rate mode : Constant
    Bit rate : 384 Kbps
    Channel(s) : 6 channels
    Channel positions : Front: L C R, Side: L R, LFE
    Sampling rate : 48.0 KHz
    Compression mode : Lossy
    Stream size : 341 MiB (11%)
    Title : Dub, AC3 5.1 ~384 kbps
    Language : Russian
    Default : Yes
    Forced : No
    Audio #2
    ID : 3
    Format : AC-3
    Format/Info : Audio Coding 3
    Mode extension : CM (complete main)
    Format settings, Endianness : Big
    Codec ID : A_AC3
    Duration : 2h 4mn
    Bit rate mode : Constant
    Bit rate : 384 Kbps
    Channel(s) : 6 channels
    Channel positions : Front: L C R, Side: L R, LFE
    Sampling rate : 48.0 KHz
    Compression mode : Lossy
    Stream size : 341 MiB (11%)
    Title : Original, AC3 5.1 ~384 kbps
    Language : English
    Default : No
    Forced : No
    Text #1
    ID : 4
    Format : UTF-8
    Codec ID : S_TEXT/UTF8
    Codec ID/Info : UTF-8 Plain Text
    Language : Russian
    Default : No
    Forced : No
    Text #2
    ID : 5
    Format : UTF-8
    Codec ID : S_TEXT/UTF8
    Codec ID/Info : UTF-8 Plain Text
    Language : English
    Default : No
    Forced : No
    Menu
    00:00:00.000 : en:Chapter 1
    00:06:14.081 : en:Chapter 2
    00:09:54.091 : en:Chapter 3
    00:13:43.028 : en:Chapter 4
    00:19:26.748 : en:Chapter 5
    00:22:54.828 : en:Chapter 6
    00:28:09.309 : en:Chapter 7
    00:32:45.672 : en:Chapter 8
    00:36:53.628 : en:Chapter 9
    00:44:02.806 : en:Chapter 10
    00:48:17.018 : en:Chapter 11
    00:53:25.827 : en:Chapter 12
    00:56:57.914 : en:Chapter 13
    01:01:13.126 : en:Chapter 14
    01:06:48.670 : en:Chapter 15
    01:12:52.493 : en:Chapter 16
    01:16:56.444 : en:Chapter 17
    01:20:53.765 : en:Chapter 18
    01:26:14.210 : en:Chapter 19
    01:30:24.836 : en:Chapter 20
    01:35:51.078 : en:Chapter 21
    01:41:28.707 : en:Chapter 22
    01:47:24.354 : en:Chapter 23
    01:53:58.623 : en:Chapter 24

    x264

    x264 [info]: frame I:1196 Avg QP:16.83 size: 84791
    x264 [info]: frame P:38116 Avg QP:19.59 size: 30136
    x264 [info]: frame B:139136 Avg QP:20.96 size: 8284
    x264 [info]: consecutive B-frames: 1.5% 2.5% 7.3% 23.9% 20.4% 30.1% 6.4% 4.1% 1.1% 0.5% 0.3% 0.4% 0.2% 1.4%
    x264 [info]: mb I I16..4: 4.8% 77.4% 17.8%
    x264 [info]: mb P I16..4: 0.6% 9.2% 1.0% P16..4: 36.9% 28.9% 16.2% 0.0% 0.0% skip: 7.1%
    x264 [info]: mb B I16..4: 0.0% 0.5% 0.1% B16..8: 41.2% 10.0% 3.3% direct: 4.3% skip:40.6% L0:42.5% L1:45.8% BI:11.7%
    x264 [info]: 8x8 transform intra:83.1% inter:58.9%
    x264 [info]: coded y,uvDC,uvAC intra: 90.0% 85.5% 70.2% inter: 24.1% 17.1% 8.1%
    x264 [info]: i16 v,h,dc,p: 49% 18% 7% 25%
    x264 [info]: i8 v,h,dc,ddl,ddr,vr,hd,vl,hu: 12% 8% 11% 9% 13% 13% 12% 11% 11%
    x264 [info]: i4 v,h,dc,ddl,ddr,vr,hd,vl,hu: 12% 9% 4% 9% 16% 16% 13% 12% 11%
    x264 [info]: i8c dc,h,v,p: 48% 17% 18% 17%
    x264 [info]: Weighted P-Frames: Y:97.8% UV:0.8%
    x264 [info]: ref P L0: 47.6% 11.4% 16.8% 6.0% 5.4% 3.9% 3.5% 1.8% 1.9% 1.6% 0.1% 0.0%
    x264 [info]: ref B L0: 77.2% 10.2% 4.8% 2.4% 1.8% 1.6% 1.2% 0.6% 0.3%
    x264 [info]: ref B L1: 95.1% 4.9%
    x264 [info]: kb/s:2582.56

    Скриншоты

    с названием

    Скачать .torrent

    Скачать торрент-файл бесплатно и на максимальной скорости!

    Как скачивать? · Что такое торрент? · Рейтинг и ограничения

    !ВНИМАНИЕ!
    Сайт не распространяет и не хранит электронные версии произведений, а занимается лишь лишь предоставлением доступа к создаваемому пользователями каталогу ссылок на торрент-файлы, которые содержат только списки хеш-сумм, убедительная просьба с жалобами обращаться напрямую к пользователю. Файлы для обмена на трекере предоставлены пользователями сайта, и администрация не несёт ответственности за их содержание. Просьба не заливать файлы, защищенные авторскими правами, а также файлы нелегального содержания!


    _________________
    [Профиль] [ЛС]
    Показать сообщения:    
    Ответить на тему

    Текущее время: Сегодня, в 20:47

    Часовой пояс: GMT + 2



    Вы не можете начинать темы
    Вы не можете отвечать на сообщения
    Вы не можете редактировать свои сообщения
    Вы не можете удалять свои сообщения
    Вы не можете голосовать в опросах
    Вы не можете прикреплять файлы к сообщениям
    Вы не можете скачивать файлы