BitTorrentTracker PerecTracker.org
BitTorrentTracker PerecTracker.org
    
Регистрация  ·  Вход
 
 · 
Забыли пароль?

  • 12 лет рабства / 12 Years a Slave (Стив МакКуин / Steve McQueen) [2013, США, Драма, биография, история, BDRip] Dub

    Ответить на тему
     
    Автор Сообщение

    Light

    Создавать темы 21-Апр-2016 03:15

           

    [Цитировать]

    12 лет рабства / 12 Years a Slave-Год выхода: 2013
    Выпущено: США, Великобритания / New Regency Pictures
    Жанр: драма, биография, история
    Продолжительность: 02:14:10
    Перевод: Профессиональный (полное дублирование) BD RUS |Лицензия|
    Cубтитры: нет-Режиссер:
    Стив МакКуин / Steve McQueen-В ролях:
    Чиветель Эджиофор (Solomon Northup), Майкл Фассбендер (Edwin Epps), Лупита Нионго (Patsey), Сара Полсон (Mistress Epps), Бенедикт Камбербэтч (Ford), Брэд Питт (Bass), Пол Дано (Tibeats), Пол Джаматти (Freeman), Элфри Вудард (Mistress Shaw), Эдеперо Одуйе (Eliza), Куавенжане Уоллис (Margaret Northup), Дж.Д. Эвермор (Chapin), Гаррет Диллахант (Armsby)-О фильме:
    Соломон Нортап был женатым и образованным мужчиной, который жил и работал в штате Нью-Йорк, когда два человека однажды предложили ему привлекательную работу в Вашингтоне. По прибытии он был похищен, стал рабом и влачил жалкую жизнь, переходя от одного хозяина к другому.-Релиз групп
    | | IMDB | КиноПоиск| Сэмпл |-Качество: BDRip [BDRemux | 1080p | Кинозал]
    Формат: AVI
    Видео: 720x304 (2.37:1), 23.976 fps, XviD build 67 ~1356 kbps avg, 0.26 bit/pixel
    Аудио: 48 kHz, AC3 Dolby Digital, 2/0 (L,R) ch, ~192 kbps avg-

    Скриншоты

    -

    MediaInfo

    General
    Complete name                            : D:\12_Let_rabstva_2013_BDRip_by_Dalemake.avi
    Format                                   : AVI
    Format/Info                              : Audio Video Interleave
    File size                                : 1.46 GiB
    Duration                                 : 2h 14mn
    Overall bit rate                         : 1 558 Kbps
    Writing application                      : VirtualDubMod 1.5.10.3 | www.virtualdub-fr.org || (build 2550/release)
    Writing library                          : VirtualDubMod build 2550/release
    Video
    ID                                       : 0
    Format                                   : MPEG-4 Visual
    Format profile                           : Advanced Simple@L5
    Format settings, BVOP                    : 1
    Format settings, QPel                    : No
    Format settings, GMC                     : No warppoints
    Format settings, Matrix                  : Custom
    Codec ID                                 : XVID
    Codec ID/Hint                            : XviD
    Duration                                 : 2h 14mn
    Bit rate                                 : 1 356 Kbps
    Width                                    : 720 pixels
    Height                                   : 304 pixels
    Display aspect ratio                     : 2.35:1
    Frame rate                               : 23.976 (23976/1000) fps
    Color space                              : YUV
    Chroma subsampling                       : 4:2:0
    Bit depth                                : 8 bits
    Scan type                                : Progressive
    Compression mode                         : Lossy
    Bits/(Pixel*Frame)                       : 0.258
    Stream size                              : 1.27 GiB (87%)
    Writing library                          : XviD 67
    Audio
    ID                                       : 1
    Format                                   : AC-3
    Format/Info                              : Audio Coding 3
    Mode extension                           : CM (complete main)
    Format settings, Endianness              : Big
    Codec ID                                 : 2000
    Duration                                 : 2h 14mn
    Bit rate mode                            : Constant
    Bit rate                                 : 192 Kbps
    Channel(s)                               : 2 channels
    Channel positions                        : Front: L R
    Sampling rate                            : 48.0 KHz
    Frame rate                               : 31.250 fps (1536 spf)
    Compression mode                         : Lossy
    Stream size                              : 184 MiB (12%)
    Alignment                                : Split accross interleaves
    Interleave, duration                     : 42 ms (1.00 video frame)
    Interleave, preload duration             : 500 ms
    Сравнениеhttp://perectracker.org/http://perectracker.org/viewtopic.php?t=5176777
    http://screenshotcomparison.com/comparison/170164
    +
    ivanes20031987 писал(а):70094064Перевод: Профессиональный (дублированный) BD EUR
    Такого звука нет в природе.-
    Скачать .torrent

    Скачать торрент-файл бесплатно и на максимальной скорости!

    Как скачивать? · Что такое торрент? · Рейтинг и ограничения

    !ВНИМАНИЕ!
    Сайт не распространяет и не хранит электронные версии произведений, а занимается лишь лишь предоставлением доступа к создаваемому пользователями каталогу ссылок на торрент-файлы, которые содержат только списки хеш-сумм, убедительная просьба с жалобами обращаться напрямую к пользователю. Файлы для обмена на трекере предоставлены пользователями сайта, и администрация не несёт ответственности за их содержание. Просьба не заливать файлы, защищенные авторскими правами, а также файлы нелегального содержания!


    _________________
    [Профиль] [ЛС]
    Показать сообщения:    
    Ответить на тему

    Текущее время: Сегодня, в 00:09

    Часовой пояс: GMT + 2



    Вы не можете начинать темы
    Вы не можете отвечать на сообщения
    Вы не можете редактировать свои сообщения
    Вы не можете удалять свои сообщения
    Вы не можете голосовать в опросах
    Вы не можете прикреплять файлы к сообщениям
    Вы не можете скачивать файлы