Register  ·  Log in
Forgot password?

  • 12 лет рабства / 12 Years a Slave (Стив МакКуин / Steve McQueen) [2013, США, Драма, биография, история, BDRip] Dub

    Reply to topic
    Author Message


    Post 21-Apr-2016 04:15



    12 лет рабства / 12 Years a Slave-Год выхода: 2013
    Выпущено: США, Великобритания / New Regency Pictures
    Жанр: драма, биография, история
    Продолжительность: 02:14:10
    Перевод: Профессиональный (полное дублирование) BD RUS |Лицензия|
    Cубтитры: нет-Режиссер:
    Стив МакКуин / Steve McQueen-В ролях:
    Чиветель Эджиофор (Solomon Northup), Майкл Фассбендер (Edwin Epps), Лупита Нионго (Patsey), Сара Полсон (Mistress Epps), Бенедикт Камбербэтч (Ford), Брэд Питт (Bass), Пол Дано (Tibeats), Пол Джаматти (Freeman), Элфри Вудард (Mistress Shaw), Эдеперо Одуйе (Eliza), Куавенжане Уоллис (Margaret Northup), Дж.Д. Эвермор (Chapin), Гаррет Диллахант (Armsby)-О фильме:
    Соломон Нортап был женатым и образованным мужчиной, который жил и работал в штате Нью-Йорк, когда два человека однажды предложили ему привлекательную работу в Вашингтоне. По прибытии он был похищен, стал рабом и влачил жалкую жизнь, переходя от одного хозяина к другому.-Релиз групп
    | | IMDB | КиноПоиск| Сэмпл |-Качество: BDRip [BDRemux | 1080p | Кинозал]
    Формат: AVI
    Видео: 720x304 (2.37:1), 23.976 fps, XviD build 67 ~1356 kbps avg, 0.26 bit/pixel
    Аудио: 48 kHz, AC3 Dolby Digital, 2/0 (L,R) ch, ~192 kbps avg-




    Complete name                            : D:\12_Let_rabstva_2013_BDRip_by_Dalemake.avi
    Format                                   : AVI
    Format/Info                              : Audio Video Interleave
    File size                                : 1.46 GiB
    Duration                                 : 2h 14mn
    Overall bit rate                         : 1 558 Kbps
    Writing application                      : VirtualDubMod | || (build 2550/release)
    Writing library                          : VirtualDubMod build 2550/release
    ID                                       : 0
    Format                                   : MPEG-4 Visual
    Format profile                           : Advanced Simple@L5
    Format settings, BVOP                    : 1
    Format settings, QPel                    : No
    Format settings, GMC                     : No warppoints
    Format settings, Matrix                  : Custom
    Codec ID                                 : XVID
    Codec ID/Hint                            : XviD
    Duration                                 : 2h 14mn
    Bit rate                                 : 1 356 Kbps
    Width                                    : 720 pixels
    Height                                   : 304 pixels
    Display aspect ratio                     : 2.35:1
    Frame rate                               : 23.976 (23976/1000) fps
    Color space                              : YUV
    Chroma subsampling                       : 4:2:0
    Bit depth                                : 8 bits
    Scan type                                : Progressive
    Compression mode                         : Lossy
    Bits/(Pixel*Frame)                       : 0.258
    Stream size                              : 1.27 GiB (87%)
    Writing library                          : XviD 67
    ID                                       : 1
    Format                                   : AC-3
    Format/Info                              : Audio Coding 3
    Mode extension                           : CM (complete main)
    Format settings, Endianness              : Big
    Codec ID                                 : 2000
    Duration                                 : 2h 14mn
    Bit rate mode                            : Constant
    Bit rate                                 : 192 Kbps
    Channel(s)                               : 2 channels
    Channel positions                        : Front: L R
    Sampling rate                            : 48.0 KHz
    Frame rate                               : 31.250 fps (1536 spf)
    Compression mode                         : Lossy
    Stream size                              : 184 MiB (12%)
    Alignment                                : Split accross interleaves
    Interleave, duration                     : 42 ms (1.00 video frame)
    Interleave, preload duration             : 500 ms
    ivanes20031987 писал(а):70094064Перевод: Профессиональный (дублированный) BD EUR
    Такого звука нет в природе.-
    Download .torrent

    Download free and at maximum speed!

    How to Download? · What is a torrent? · Ratings and Limitations

    The site does not extend and does not store electronic(digital) versions of products, and only gives access to a reference catalogue created by users on torrent-files which contain only lists of the hash-sums, the earnest entreaty, with complaints(abuse) to access directly to the user. Files for an exchange on tracker are given by users of a site, and the administration does not bear the responsibility for their maintenance. The request to not fill in the files protected by copyrights, and also files of the illegal maintenance!

    [Profile] [PM]
    Display posts from previous:    
    Reply to topic

    The time now is: Today 01:45

    All times are GMT + 3 Hours

    You cannot post new topics in this forum
    You cannot reply to topics in this forum
    You cannot edit your posts in this forum
    You cannot delete your posts in this forum
    You cannot vote in polls in this forum
    You cannot attach files in this forum
    You cannot download files in this forum