BitTorrentTracker PerecTracker.org
BitTorrentTracker PerecTracker.org
    
Регистрация  ·  Вход
 
 · 
Забыли пароль?

  • Доктор Голдфут и девушки-бомбы / Le spie vengono dal semifreddo / Dr. Goldfoot and the Girl Bombs (Марио Бава / Mario Bava) [1966, Италия, США, Фантастика, комедия, BDRemux 1080p] DVO + Original Eng

    Ответить на тему
     
    Автор Сообщение

    Light

    Создавать темы 20-Апр-2016 23:04

           

    [Цитировать]

    -Доктор Голдфут и девушки-бомбы / Le spie vengono dal semifreddo / Dr. Goldfoot and the Girl Bombs-Страна: Италия, США
    Жанр: Фантастика, комедия
    Год выпуска: 1966
    Продолжительность: 1:21:54-Перевод: Профессиональный (двухголосый закадровый)
    Cубтитры: нет
    Оригинальная аудиодорожка: английский-Режиссер: Марио Бава / Mario Bava
    В ролях: Винсент Прайс, Фабиан, Франко Франки, Чиччо Инграссия, Франческо Мулэ, Лаура Антонелли, Эннио Антонелли, Марио Бава, Луис М. Хэйард, Моа Таи, Джордж Ванг-Описание: Доктор Голдфут вновь планирует захватит весь мир. На этот раз с помошью обворожительных девушек-роботов, начинённых взрывными устройствами.
    Сэмпл-Тип релиза: BDRemux 1080p
    Контейнер: MKV
    Видео: MPEG-4 AVC Video / 24918 kbps / 1080p / 23.976 fps / 16:9 / High Profile 4.1
    Аудио: Russian / Dolby Digital Audio / 2.0 / 48 kHz / 192 kbps
    Аудио 2: English / DTS-HD Master Audio / 2.0 / 48 kHz / 1650 kbps / 16-bit (DTS Core: 2.0 / 48 kHz / 1509 kbps / 16-bit)

    MI

    GeneralUnique ID : 204237424814640389020994023892219751777 (0x99A6B27D1BCB2BF5A9B4F7E32EF26D61)Complete name : P:\[По режиссерам]\+ Mario Bava\Доктор Голдфут и девушки-бомбы (1966. Le spie vengono dal semifreddo).mkvFormat : MatroskaFormat version : Version 4 / Version 2File size : 15.4 GiBDuration : 1h 22mnOverall bit rate mode : VariableOverall bit rate : 26.8 MbpsMovie name : Release for RuTrackerEncoded date : UTC 2016-04-19 22:55:30Writing application : mkvmerge v9.0.1 ('Obstacles') 64bitWriting library : libebml v1.3.3 + libmatroska v1.4.4Cover : YesAttachments : cover.jpg
    VideoID : 1Format : AVCFormat/Info : Advanced Video CodecFormat profile : High@L4.1Format settings, CABAC : YesFormat settings, ReFrames : 3 framesFormat settings, GOP : M=3, N=12Codec ID : V_MPEG4/ISO/AVCDuration : 1h 22mnBit rate mode : VariableBit rate : 24.9 MbpsMaximum bit rate : 32.3 MbpsWidth : 1 920 pixelsHeight : 1 080 pixelsDisplay aspect ratio : 16:9Frame rate mode : ConstantFrame rate : 23.976 (24000/1001) fpsStandard : NTSCColor space : YUVChroma subsampling : 4:2:0Bit depth : 8 bitsScan type : ProgressiveBits/(Pixel*Frame) : 0.501Stream size : 14.3 GiB (93%)Title : Le spie vengono dal semifreddo 1966 1080p Blu-ray AVC DTS HD-MA 2.0-KarloffLanguage : EnglishDefault : YesForced : NoColor range : LimitedColor primaries : BT.709Transfer characteristics : BT.709Matrix coefficients : BT.709
    Audio #1ID : 2Format : AC-3Format/Info : Audio Coding 3Mode extension : CM (complete main)Format settings, Endianness : BigCodec ID : A_AC3Duration : 1h 22mnBit rate mode : ConstantBit rate : 192 KbpsChannel(s) : 2 channelsChannel positions : Front: L RSampling rate : 48.0 KHzFrame rate : 31.250 fps (1536 spf)Compression mode : LossyStream size : 113 MiB (1%)Title : DVO [НТВ+]Language : RussianDefault : YesForced : No
    Audio #2ID : 3Format : DTSFormat/Info : Digital Theater SystemsFormat profile : MA / CoreMode : 16Format settings, Endianness : BigCodec ID : A_DTSDuration : 1h 22mnBit rate mode : Variable / ConstantBit rate : 1 653 Kbps / 1 509 KbpsChannel(s) : 2 channelsChannel positions : Front: L RSampling rate : 48.0 KHzFrame rate : 93.750 fps (512 spf)Bit depth : 16 bitsCompression mode : Lossless / LossyStream size : 971 MiB (6%)Language : EnglishDefault : NoForced : No
    Menu00:00:00.000 : en:Chapter 100:09:02.959 : en:Chapter 200:20:55.504 : en:Chapter 300:34:15.929 : en:Chapter 400:42:31.549 : en:Chapter 500:54:58.337 : en:Chapter 601:03:37.564 : en:Chapter 701:12:21.879 : en:Chapter 8
    Скриншоты

    Зеркало


    Цитата:
    Цитата:

    • Русский звук с этой раздачи.
    • В данной раздаче американская версия фильма. Существует также итальянская, которая значительно отличается монтажом. Многие сцены были пересняты или вырезаны/добавлены. Подогнать оттуда перевод не представляется возможным.
    • За оригинальный BD спасибо Karloff!
    • Сохранены оригинальные чаптеры как на Blu-ray.
    Скачать .torrent

    Скачать торрент-файл бесплатно и на максимальной скорости!

    Как скачивать? · Что такое торрент? · Рейтинг и ограничения

    !ВНИМАНИЕ!
    Сайт не распространяет и не хранит электронные версии произведений, а занимается лишь лишь предоставлением доступа к создаваемому пользователями каталогу ссылок на торрент-файлы, которые содержат только списки хеш-сумм, убедительная просьба с жалобами обращаться напрямую к пользователю. Файлы для обмена на трекере предоставлены пользователями сайта, и администрация не несёт ответственности за их содержание. Просьба не заливать файлы, защищенные авторскими правами, а также файлы нелегального содержания!


    _________________
    [Профиль] [ЛС]
    Показать сообщения:    
    Ответить на тему

    Текущее время: Сегодня, в 09:51

    Часовой пояс: GMT + 2



    Вы не можете начинать темы
    Вы не можете отвечать на сообщения
    Вы не можете редактировать свои сообщения
    Вы не можете удалять свои сообщения
    Вы не можете голосовать в опросах
    Вы не можете прикреплять файлы к сообщениям
    Вы не можете скачивать файлы