BitTorrentTracker PerecTracker.org
BitTorrentTracker PerecTracker.org
    
Регистрация  ·  Вход
 
 · 
Забыли пароль?

  • [ATV3] Игра на понижение / The Big Short (Адам МакКей / Adam McKay) [2015, США, Драма, биография, BDRip, HD (1080p)] DUB + Original + sub (rus, eng)

    Ответить на тему
     
    Автор Сообщение

    rechyn

    Создавать темы 20-Апр-2016 18:51

           

    [Цитировать]

    Игра на понижение / The Big Short
    «Неправдоподобная, но правдивая история»
    7.307 / 10 7.80 / 10
    -Год выпуска: 2015
    Страна: США
    Жанр: Драма, биография
    Продолжительность: 02:10:15
    Перевод: Дублированный (iTunes)
    Оригинальная аудиодорожка: Есть
    Cубтитры: Русские форсированные, Русские, Английские
    Режиссёр: Адам МакКей
    Сценарий: Чарльз Рэндольф, Адам МакКей, Майкл Льюис
    Продюсер: Деде Гарднер, Джереми Клейнер, Арнон Милчен
    Оператор: Бэрри Экройд
    Композитор: Николас Брителл
    Художник: Клэйтон Хартли, Эллиотт Глик, Сьюзэн Мэтисон
    Монтаж: Хэнк Коруин
    В ролях: Кристиан Бэйл, Стив Карелл, Райан Гослинг, Брэд Питт, Мелисса Лео, Хамиш Линклэйтер, Джон Магаро, Рейф Сполл, Джереми Стронг, Мариса Томей
    Бюджет: $28 000 000
    Сборы в США: $70 259 870
    Сборы в мире: + $62 690 891 = $132 950 761
    Сборы в России: $1 453 885
    Мировая премьера: 12 ноября 2015
    Премьера (РФ): 21 января 2016, «Централ Партнершип»
    Описание: Когда речь идет о деньгах, совесть молчит. А уж если речь об огромных деньгах!.. Это основанная на реальных событиях история нескольких провидцев, которые независимо друг от друга предсказали мировой экономический кризис 2008 года задолго до того, как о нем зашептались в кулуарах на Уолл-стрит. И предсказав, стали на нем зарабатывать. Сами того не желая.-Качество исходника: Blu-Ray (BlueBird)
    Качество: BDRip
    Тип: HD (1080p)
    Контейнер: M4V
    Видео: H.264, 1920x800, 2.40:1, 9 500 Kbps, 23.976 (24000/1001) fps
    Аудио 1: Русский/Дублированный (iTunes), AAC / 2.0 / 156 Kbps / 48.0 KHz
    Аудио 2: Английский/Оригинальная дорожка , AAC / 2.0 / 157 Kbps / 48.0 KHz
    Аудио 3: Русский/Дублированный (iTunes), AC-3 / 5.1 / 384 Kbps / 48.0 KHz
    Аудио 4: Английский/Оригинальная дорожка , AC-3 / 5.1 / 640 Kbps / 48.0 KHz
    Субтитры 1: Русские форсированные
    Субтитры 2: Русские полные
    Субтитры 3: Английские полные
    -

    iTunes Meta Tags

    Sort Name: Big Short
    XID: Apple:vendor_id:2015-501333
    contentID: 1061320456
    Copyright: © MMXV Paramount Pictures Corporation and Regency Entertainment (USA), Inc. All Rights Reserved.
    Screenwriters: Чарльз Рэндольф, Адам МакКей, Майкл Льюис
    Producers: Деде Гарднер, Джереми Клейнер, Арнон Милчен
    Director: Адам МакКей
    Cast: Кристиан Бэйл, Стив Карелл, Райан Гослинг, Брэд Питт, Мелисса Лео, Хамиш Линклэйтер, Джон Магаро, Рейф Сполл, Джереми Стронг, Мариса Томей
    Studio: Paramount
    Rating: 5
    Long Description: Когда речь идет о деньгах, совесть молчит. А уж если речь об огромных деньгах!.. Это основанная на реальных событиях история нескольких провидцев, которые независимо друг от друга предсказали мировой экономический кризис 2008 года задолго до того, как о нем зашептались в кулуарах на Уолл-стрит. И предсказав, стали на нем зарабатывать. Сами того не желая.
    Description: Когда речь идет о деньгах, совесть молчит. А уж если речь об огромных деньгах!.. Это основанная на реальных событиях история нескольких провидцев, которые независимо друг от друга предсказали мировой экономический кризис 2008 года задолго до того, как о нем зашептались в кулуарах на Уолл-стрит. И предсказав, стали на нем зарабатывать. Сами того не желая.
    Release Date: 2015-11-12T08:00:00Z
    Genre: Drama
    Artist: Adam McKay
    Name: The Big Short

    MediaInfo

    General
    Complete name : /Users/imac/HandBrake/The Big Short (1080p HD).m4v
    Format : MPEG-4
    Codec ID : M4V  (M4V /M4A /mp42/isom)
    File size : 9.59 GiB
    Duration : 2h 10mn
    Overall bit rate mode : Variable
    Overall bit rate : 10.5 Mbps
    Movie name : The Big Short
    Performer : Adam McKay
    Director : Адам МакКей
    Actor : Кристиан Бэйл / Стив Карелл / Райан Гослинг / Брэд Питт / Мелисса Лео / Хамиш Линклэйтер / Джон Магаро / Рейф Сполл / Джереми Стронг / Мариса Томей
    Screenplay by : Чарльз Рэндольф / Адам МакКей / Майкл Льюис
    Producer : Деде Гарднер / Джереми Клейнер / Арнон Милчен
    Production studio : Paramount
    Genre : Drama
    ContentType : Short Film
    Description : Когда речь идет о деньгах, совесть молчит. А уж если речь об огромных деньгах!.. Это основанная на реальных событиях история нескольких провидцев, которые независимо друг от друга предсказали мировой экономический кризис 2008 года задолго до того, как о нем зашептались в кулуарах на Уолл-стрит. И предсказав, стали на нем зарабатывать. Сами того не желая.
    Recorded date : UTC 2015-11-12 08:00:00
    Encoded date : UTC 2016-04-20 10:34:12
    Tagged date : UTC 2016-04-20 10:50:02
    Copyright : © MMXV Paramount Pictures Corporation and Regency Entertainment (USA), Inc. All Rights Reserved.
    Cover : Yes
    Rating : None
    Title/Sort : Big Short
    LongDescription : Когда речь идет о деньгах, совесть молчит. А уж если речь об огромных деньгах!.. Это основанная на реальных событиях история нескольких провидцев, которые независимо друг от друга предсказали мировой экономический кризис 2008 года задолго до того, как о нем зашептались в кулуарах на Уолл-стрит. И предсказав, стали на нем зарабатывать. Сами того не желая.
    AppleStoreCatalogID : 1061320456
    Vendor : Apple:vendor_id:2015-501333
    ContentRating : mpaa|R|400|
    Video #1
    ID : 1
    Format : AVC
    Format/Info : Advanced Video Codec
    Format profile : High@L4
    Format settings, CABAC : Yes
    Format settings, ReFrames : 4 frames
    Codec ID : avc1
    Codec ID/Info : Advanced Video Coding
    Duration : 2h 10mn
    Source duration : 2h 10mn
    Bit rate : 9 500 Kbps
    Width : 1 920 pixels
    Height : 800 pixels
    Display aspect ratio : 2.40:1
    Frame rate mode : Variable
    Frame rate : 23.976 (24000/1001) fps
    Minimum frame rate : 23.974 fps
    Maximum frame rate : 23.981 fps
    Color space : YUV
    Chroma subsampling : 4:2:0
    Bit depth : 8 bits
    Scan type : Progressive
    Bits/(Pixel*Frame) : 0.258
    Stream size : 8.36 GiB (87%)
    Source stream size : 8.36 GiB (87%)
    Title : Main Program
    Writing library : x264 core 142 r2479 dd79a61
    Encoding settings : cabac=1 / ref=4 / deblock=1:-3:-2 / analyse=0x3:0x133 / me=umh / subme=9 / psy=1 / psy_rd=1.00:0.00 / mixed_ref=1 / me_range=32 / chroma_me=1 / trellis=2 / 8x8dct=1 / cqm=0 / deadzone=6,6 / fast_pskip=1 / chroma_qp_offset=-2 / threads=36 / lookahead_threads=6 / sliced_threads=0 / nr=0 / decimate=0 / interlaced=0 / bluray_compat=0 / constrained_intra=0 / bframes=16 / b_pyramid=2 / b_adapt=2 / b_bias=0 / direct=3 / weightb=1 / open_gop=0 / weightp=2 / keyint=240 / keyint_min=24 / scenecut=40 / intra_refresh=0 / rc_lookahead=40 / rc=2pass / mbtree=1 / bitrate=9500 / ratetol=1.0 / qcomp=0.80 / qpmin=0 / qpmax=69 / qpstep=4 / cplxblur=20.0 / qblur=0.5 / vbv_maxrate=9500 / vbv_bufsize=25000 / nal_hrd=none / filler=0 / ip_ratio=1.10 / aq=1:0.50
    Language : English
    Encoded date : UTC 2016-04-20 10:34:13
    Tagged date : UTC 2016-04-20 10:34:36
    Color range : Limited
    Color primaries : BT.709
    Transfer characteristics : BT.709
    Matrix coefficients : BT.709
    Menus : 9,10
    Video #2
    ID : 10
    Format : JPEG
    Codec ID : jpeg
    Duration : 2h 10mn
    Bit rate mode : Variable
    Bit rate : 993 bps
    Width : 640 pixels
    Height : 266 pixels
    Display aspect ratio : 2.40:1
    Frame rate mode : Variable
    Frame rate : 0.003 fps
    Minimum frame rate : 0.002 fps
    Maximum frame rate : 0.006 fps
    Color space : YUV
    Chroma subsampling : 4:2:0
    Bit depth : 8 bits
    Compression mode : Lossy
    Bits/(Pixel*Frame) : 1.944
    Stream size : 848 KiB (0%)
    Title : Chapter Images
    Language : English
    Default : No
    Encoded date : UTC 2016-04-20 10:34:51
    Tagged date : UTC 2016-04-20 10:34:52
    Menu For : 1
    Audio #1
    ID : 2
    Format : AAC
    Format/Info : Advanced Audio Codec
    Format profile : LC
    Codec ID : 40
    Duration : 2h 10mn
    Bit rate mode : Variable
    Bit rate : 156 Kbps
    Maximum bit rate : 258 Kbps
    Channel(s) : 2 channels
    Channel positions : Front: L R
    Sampling rate : 48.0 KHz
    Frame rate : 46.875 fps (1024 spf)
    Compression mode : Lossy
    Stream size : 146 MiB (1%)
    Title : Russian Stereo
    Language : Russian
    Default : Yes
    Alternate group : 1
    Encoded date : UTC 2016-04-20 10:34:12
    Tagged date : UTC 2016-04-20 10:34:39
    Fallback From : 4
    Subtitles : 6,7
    Menus : 9
    Audio #2
    ID : 3
    Format : AAC
    Format/Info : Advanced Audio Codec
    Format profile : LC
    Codec ID : 40
    Duration : 2h 10mn
    Bit rate mode : Variable
    Bit rate : 157 Kbps
    Maximum bit rate : 262 Kbps
    Channel(s) : 2 channels
    Channel positions : Front: L R
    Sampling rate : 48.0 KHz
    Frame rate : 46.875 fps (1024 spf)
    Compression mode : Lossy
    Stream size : 146 MiB (1%)
    Title : English Stereo
    Language : English
    Default : No
    Alternate group : 1
    Encoded date : UTC 2016-04-20 10:34:13
    Tagged date : UTC 2016-04-20 10:34:40
    Fallback From : 5
    Audio #3
    ID : 4
    Format : AC-3
    Format/Info : Audio Coding 3
    Mode extension : CM (complete main)
    Format settings, Endianness : Big
    Codec ID : ac-3
    Duration : 2h 10mn
    Bit rate mode : Constant
    Bit rate : 384 Kbps
    Channel(s) : 6 channels
    Channel positions : Front: L C R, Side: L R, LFE
    Sampling rate : 48.0 KHz
    Frame rate : 31.250 fps (1536 spf)
    Bit depth : 16 bits
    Compression mode : Lossy
    Stream size : 358 MiB (4%)
    Title : Russian DD 5.1
    Language : Russian
    Default : Inherited From: 2
    Alternate group : 1
    Encoded date : UTC 2016-04-20 10:34:13
    Tagged date : UTC 2016-04-20 10:34:37
    Fallback To : 2
    Subtitles : 6,7
    Audio #4
    ID : 5
    Format : AC-3
    Format/Info : Audio Coding 3
    Mode extension : CM (complete main)
    Format settings, Endianness : Big
    Codec ID : ac-3
    Duration : 2h 10mn
    Bit rate mode : Constant
    Bit rate : 640 Kbps
    Channel(s) : 6 channels
    Channel positions : Front: L C R, Side: L R, LFE
    Sampling rate : 48.0 KHz
    Frame rate : 31.250 fps (1536 spf)
    Bit depth : 16 bits
    Compression mode : Lossy
    Stream size : 596 MiB (6%)
    Title : English DD 5.1
    Language : English
    Default : No
    Alternate group : 1
    Encoded date : UTC 2016-04-20 10:34:13
    Tagged date : UTC 2016-04-20 10:34:37
    Fallback To : 3
    Text #1
    ID : 6
    Format : Timed Text
    Muxing mode : sbtl
    Codec ID : tx3g
    Duration : 2h 3mn
    Bit rate mode : Variable
    Bit rate : 7 bps
    Stream size : 6.31 KiB (0%)
    Title : Russian forced
    Language : Russian
    Default : Yes
    Forced : Yes
    Alternate group : 2
    Encoded date : UTC 2016-04-20 10:34:13
    Tagged date : UTC 2016-04-20 10:34:13
    Subtitles For : 2,4
    Full Alternative : 7
    Text #2
    ID : 7
    Format : Timed Text
    Muxing mode : sbtl
    Codec ID : tx3g
    Duration : 2h 3mn
    Bit rate mode : Variable
    Bit rate : 181 bps
    Stream size : 164 KiB (0%)
    Title : Russian full
    Language : Russian
    Default : No
    Forced : No
    Alternate group : 2
    Encoded date : UTC 2016-04-20 10:34:13
    Tagged date : UTC 2016-04-20 10:34:13
    Subtitles For : 2,4
    Forced Alternative : 6
    Text #3
    ID : 8
    Format : Timed Text
    Muxing mode : sbtl
    Codec ID : tx3g
    Duration : 2h 1mn
    Bit rate mode : Variable
    Bit rate : 109 bps
    Stream size : 97.6 KiB (0%)
    Title : English full
    Language : English
    Default : No
    Forced : No
    Alternate group : 2
    Encoded date : UTC 2016-04-20 10:34:13
    Tagged date : UTC 2016-04-20 10:34:13
    Menu #1
    00:00:00.000 : Chapter 1
    00:09:24.647 : Chapter 2
    00:15:47.655 : Chapter 3
    00:19:02.558 : Chapter 4
    00:25:59.600 : Chapter 5
    00:28:50.062 : Chapter 6
    00:37:24.325 : Chapter 7
    00:42:54.572 : Chapter 8
    00:49:36.765 : Chapter 9
    00:57:01.918 : Chapter 10
    01:02:09.059 : Chapter 11
    01:10:53.040 : Chapter 12
    01:17:03.327 : Chapter 13
    01:20:57.186 : Chapter 14
    01:29:52.512 : Chapter 15
    01:34:37.130 : Chapter 16
    01:41:15.987 : Chapter 17
    01:45:30.574 : Chapter 18
    01:49:34.735 : Chapter 19
    01:55:16.159 : Chapter 20
    02:03:44.584 : Chapter 21
    Menu #2
    ID : 9
    Codec ID : text
    Duration : 2h 10mn
    Language : English
    Encoded date : UTC 2016-04-20 10:34:40
    Tagged date : UTC 2016-04-20 10:34:40
    Menu For : 2,1
    00:00:00.000 : Chapter 1
    00:09:24.647 : Chapter 2
    00:15:47.655 : Chapter 3
    00:19:02.558 : Chapter 4
    00:25:59.600 : Chapter 5
    00:28:50.062 : Chapter 6
    00:37:24.325 : Chapter 7
    00:42:54.572 : Chapter 8
    00:49:36.765 : Chapter 9
    00:57:01.918 : Chapter 10
    01:02:09.059 : Chapter 11
    01:10:53.040 : Chapter 12
    01:17:03.327 : Chapter 13
    01:20:57.186 : Chapter 14
    01:29:52.512 : Chapter 15
    01:34:37.130 : Chapter 16
    01:41:15.987 : Chapter 17
    01:45:30.574 : Chapter 18
    01:49:34.735 : Chapter 19
    01:55:16.159 : Chapter 20
    02:03:44.584 : Chapter 21
    Bit rate mode : VBR

    x264 лог

    x264 [info]: frame I:1039  Avg QP:19.31  size:152507
    x264 [info]: frame P:40525 Avg QP:20.22  size: 70843
    x264 [info]: frame B:145829 Avg QP:21.51  size: 40794
    x264 [info]: consecutive B-frames:  1.9%  2.8% 14.6%  8.2% 13.5% 49.6%  3.4%  1.0%  0.7%  0.9%  0.4%  0.2%  0.2%  0.2%  0.3%  0.6%  1.5%
    x264 [info]: mb I  I16..4: 22.1% 68.9%  9.0%
    x264 [info]: mb P  I16..4:  4.2% 12.8%  1.0%  P16..4: 46.1% 15.4% 10.5%  0.2%  0.1%    skip: 9.7%
    x264 [info]: mb B  I16..4:  0.7%  2.4%  0.1%  B16..8: 44.8%  7.4%  1.9%  direct:10.7%  skip:31.9%  L0:44.2% L1:49.0% BI: 6.8%
    x264 [info]: 8x8 transform intra:72.3% inter:62.9%
    x264 [info]: direct mvs  spatial:99.0% temporal:1.0%
    x264 [info]: coded y,uvDC,uvAC intra: 88.0% 82.1% 61.8% inter: 38.8% 40.0% 14.1%
    x264 [info]: i16 v,h,dc,p: 21% 12% 30% 36%
    x264 [info]: i8 v,h,dc,ddl,ddr,vr,hd,vl,hu:  8%  7%  8% 11% 15% 14% 14% 12% 12%
    x264 [info]: i4 v,h,dc,ddl,ddr,vr,hd,vl,hu: 10% 10%  8%  9% 14% 14% 13% 10% 12%
    x264 [info]: i8c dc,h,v,p: 48% 20% 16% 16%
    x264 [info]: Weighted P-Frames: Y:2.7% UV:1.4%
    x264 [info]: ref P L0: 50.8% 11.9% 24.9% 10.6%  1.8%  0.0%
    x264 [info]: ref B L0: 85.9% 11.5%  2.6%
    x264 [info]: ref B L1: 91.9%  8.1%
    x264 [info]: kb/s:9189.92

    Скриншоты

    -

    Релиз подготовлен для просмотра на Apple TV, iPad, iPhone, iPod Touch.
    Для просмотра данного релиза на компьютере с ОС Windows рекомендуется использовать VLC media player
    Скачать .torrent

    Скачать торрент-файл бесплатно и на максимальной скорости!

    Как скачивать? · Что такое торрент? · Рейтинг и ограничения

    !ВНИМАНИЕ!
    Сайт не распространяет и не хранит электронные версии произведений, а занимается лишь лишь предоставлением доступа к создаваемому пользователями каталогу ссылок на торрент-файлы, которые содержат только списки хеш-сумм, убедительная просьба с жалобами обращаться напрямую к пользователю. Файлы для обмена на трекере предоставлены пользователями сайта, и администрация не несёт ответственности за их содержание. Просьба не заливать файлы, защищенные авторскими правами, а также файлы нелегального содержания!


    _________________
    [Профиль] [ЛС]
    Показать сообщения:    
    Ответить на тему

    Текущее время: Сегодня, в 00:01

    Часовой пояс: GMT + 2



    Вы не можете начинать темы
    Вы не можете отвечать на сообщения
    Вы не можете редактировать свои сообщения
    Вы не можете удалять свои сообщения
    Вы не можете голосовать в опросах
    Вы не можете прикреплять файлы к сообщениям
    Вы не можете скачивать файлы