BitTorrentTracker PerecTracker.org
BitTorrentTracker PerecTracker.org
    
Регистрация  ·  Вход
 
 · 
Забыли пароль?

  • Дорожные игры / Road Games (Эбнер Пастолл / Abner Pastoll) [2015, Великобритания, Франция, триллер, WEB-DLRip] DVO (datynet & Galina Vasyukova) + Original Eng

    Ответить на тему
     
    Автор Сообщение

    Light

    Создавать темы 20-Апр-2016 06:15

           

    [Цитировать]

    -Дорожные игры
    Road Games
    -Страна: Великобритания, Франция
    Жанр: триллер
    Год выпуска: 2015
    Продолжительность: 01:34:55-Перевод: Любительский (двухголосый закадровый) datynet & Galina Vasyukova
    Cубтитры: нет
    Оригинальная аудиодорожка: английский-Режиссер: Эбнер Пастолл / Abner Pastoll-В ролях: Эндрю Симпсон, Жозефин де ла Буме, Фредерик Пьеро, Барбара Крэмптон, Федор Аткин, Пьер Буланжер, Сузанна Каппельяро, Эдвард Хогг, Clémentine Alexandre, Erwan Hiernard-Описание: “Дорожные игры” – не совсем типичный фильм ужасов об опасной привычке ловить попутки на пустынных безлюдных дорогах. Молодой американец Джек вынужден ловить попутки во Франции. Местная девушка Вероника объясняет парню, что в этих краях орудует серийный убийца, жертвами которого уже стали десятки людей, поэтому любой водитель считает благоразумным не брать попутчиков. Наконец, один француз соглашается их подвести и даже приглашает к себе домой. Не зная французского, Джек оказываются вовлечен в череду ужасных событий устроенных хозяевами-лягушатниками.- -Качество видео: WEB-DLRip
    Формат видео: AVI
    Видео: MPEG4, XviD, 720x304 (2.35:1), 24.000 fps, 1 795 Kbps (0.342 bit/pixel)
    Аудио: AC-3, 48.0 KHz, 2 ch, 192 Kbps Rus
    Аудио 2: AC-3, 48.0 KHz, 2 ch, 192 Kbps Eng--

    MediaInfo

    General
    Complete name               : D:\Фильмы\Road.Games.2015.L2.WEB-DLRip.avi
    Format                      : AVI
    Format/Info                 : Audio Video Interleave
    File size                   : 1.45 GiB
    Duration                    : 1h 34mn
    Overall bit rate            : 2 193 Kbps
    Writing application         : VirtualDubMod 1.5.10.3 | www.virtualdub-fr.org || (build 2550/release)
    Writing library             : VirtualDubMod build 2550/release
    Video
    ID                          : 0
    Format                      : MPEG-4 Visual
    Format profile              : Advanced Simple@L5
    Format settings, BVOP       : 1
    Format settings, QPel       : No
    Format settings, GMC        : No warppoints
    Format settings, Matrix     : Custom
    Codec ID                    : XVID
    Codec ID/Hint               : XviD
    Duration                    : 1h 34mn
    Bit rate                    : 1 795 Kbps
    Width                       : 720 pixels
    Height                      : 304 pixels
    Display aspect ratio        : 2.35:1
    Frame rate                  : 24.000 fps
    Color space                 : YUV
    Chroma subsampling          : 4:2:0
    Bit depth                   : 8 bits
    Scan type                   : Progressive
    Compression mode            : Lossy
    Bits/(Pixel*Frame)          : 0.342
    Stream size                 : 1.19 GiB (82%)
    Writing library             : XviD 73
    Audio #1
    ID                          : 1
    Format                      : AC-3
    Format/Info                 : Audio Coding 3
    Mode extension              : CM (complete main)
    Format settings, Endianness : Big
    Codec ID                    : 2000
    Duration                    : 1h 34mn
    Bit rate mode               : Constant
    Bit rate                    : 192 Kbps
    Channel(s)                  : 2 channels
    Channel positions           : Front: L R
    Sampling rate               : 48.0 KHz
    Frame rate                  : 31.250 fps (1536 spf)
    Compression mode            : Lossy
    Stream size                 : 130 MiB (9%)
    Alignment                   : Split accross interleaves
    Interleave, duration        : 42 ms (1.00 video frame)
    Interleave, preload duratio : 500 ms
    Audio #2
    ID                          : 2
    Format                      : AC-3
    Format/Info                 : Audio Coding 3
    Mode extension              : CM (complete main)
    Format settings, Endianness : Big
    Codec ID                    : 2000
    Duration                    : 1h 34mn
    Bit rate mode               : Constant
    Bit rate                    : 192 Kbps
    Channel(s)                  : 2 channels
    Channel positions           : Front: L R
    Sampling rate               : 48.0 KHz
    Frame rate                  : 31.250 fps (1536 spf)
    Compression mode            : Lossy
    Stream size                 : 130 MiB (9%)
    Alignment                   : Split accross interleaves
    Interleave, duration        : 42 ms (1.00 video frame)
    Interleave, preload duratio : 500 ms

    -

    Скриншот c названием фильма

    Скриншоты

    -
    Скачать .torrent

    Скачать торрент-файл бесплатно и на максимальной скорости!

    Как скачивать? · Что такое торрент? · Рейтинг и ограничения

    !ВНИМАНИЕ!
    Сайт не распространяет и не хранит электронные версии произведений, а занимается лишь лишь предоставлением доступа к создаваемому пользователями каталогу ссылок на торрент-файлы, которые содержат только списки хеш-сумм, убедительная просьба с жалобами обращаться напрямую к пользователю. Файлы для обмена на трекере предоставлены пользователями сайта, и администрация не несёт ответственности за их содержание. Просьба не заливать файлы, защищенные авторскими правами, а также файлы нелегального содержания!


    _________________
    [Профиль] [ЛС]
    Показать сообщения:    
    Ответить на тему

    Текущее время: Сегодня, в 01:13

    Часовой пояс: GMT + 2



    Вы не можете начинать темы
    Вы не можете отвечать на сообщения
    Вы не можете редактировать свои сообщения
    Вы не можете удалять свои сообщения
    Вы не можете голосовать в опросах
    Вы не можете прикреплять файлы к сообщениям
    Вы не можете скачивать файлы