BitTorrentTracker PerecTracker.org
BitTorrentTracker PerecTracker.org
    
Регистрация  ·  Вход
 
 · 
Забыли пароль?

  • Игра на понижение / The Big Short (Адам МакКей / Adam McKay) [2015, США, драма, биография, BDRip-AVC] Dub (iTunes) + Sub Rus, Eng + Original Eng

    Ответить на тему
     
    Автор Сообщение

    Light

    Создавать темы 19-Апр-2016 21:55

           

    [Цитировать]

    Игра на понижение
    The Big Short
    «Неправдоподобная, но правдивая история»
    -Страна: США
    Жанр: драма, биография
    Год выпуска: 2015
    Продолжительность: 02:10:15
    Перевод: Профессиональный (дублированный) iTunes
    Cубтитры: Rus (Forced), Eng (Full, SDH)
    Оригинальная аудиодорожка: английский
    Режиссер: Адам МакКей / Adam McKay
    В ролях
    Кристиан Бэйл | Christian Bale
    Стив Карелл | Steve Carell
    Райан Гослинг | Ryan Gosling
    Брэд Питт | Brad Pitt

    Мелисса Лео, Хамиш Линклэйтер, Джон Магаро, Рейф Сполл, Джереми Стронг, Мариса Томей, Финн Уиттрок, Стэнли Вонг, Байрон Манн, Трэйси Леттс, Карен Гиллан, Селена Гомес, Макс Гринфилд, Марго Робби, Руди Айзенцопф, Кэйси Гров-ОписаниеКогда речь идет о деньгах, совесть молчит. А уж если речь об огромных деньгах!.. Это основанная на реальных событиях история нескольких провидцев, которые независимо друг от друга предсказали мировой экономический кризис 2008 года задолго до того, как о нем зашептались в кулуарах на Уолл-стрит. И предсказав, стали на нем зарабатывать. Сами того не желая.-Сэмпл

    IMDb: 7.90 (101 508)

    Оскар, 2016 год
    Победитель (1):
    Лучший адаптированный сценарий
    Британская академия, 2016 год
    Победитель (1):
    Лучший адаптированный сценарий

    Качество видео: BDRip-AVC The Big Short 2015 1080p Blu-ray Remux AVC DTS-X - KRaLiMaRKo
    Формат видео: MKV
    Видео: AVC 4364 Kbps 1152 x 480 (2.400) 23.976 fps
    Аудио: AC-3 384 Kbps 6 channels, 48.0 KHz DUB iTunes
    Аудио 2: AC-3 448 Kbps 6 channels, 48.0 KHz Eng
    Формат субтитров: softsub (SRT)
    MediaInfo | Log

    Log

    x264 [info]: frame I:1226 Avg QP:16.71 size: 88940
    x264 [info]: frame P:39455 Avg QP:18.51 size: 39619
    x264 [info]: frame B:146712 Avg QP:20.06 size: 18350
    x264 [info]: consecutive B-frames: 1.9% 2.9% 9.7% 11.5% 16.7% 45.1% 4.5% 1.1% 1.2% 0.9% 0.9% 0.5% 0.6% 0.7% 1.7%
    x264 [info]: mb I I16..4: 13.4% 72.9% 13.8%
    x264 [info]: mb P I16..4: 0.6% 22.3% 1.1% P16..4: 25.8% 30.3% 11.5% 1.4% 0.1% skip: 6.8%
    x264 [info]: mb B I16..4: 0.0% 4.7% 0.1% B16..8: 36.7% 19.9% 4.0% direct: 6.3% skip:28.3% L0:44.0% L1:46.0% BI:10.1%
    x264 [info]: 8x8 transform intra:93.2% inter:63.7%
    x264 [info]: direct mvs spatial:99.8% temporal:0.2%
    x264 [info]: coded y,uvDC,uvAC intra: 97.1% 95.5% 88.7% inter: 35.4% 31.8% 13.4%
    x264 [info]: i16 v,h,dc,p: 26% 15% 19% 41%
    x264 [info]: i8 v,h,dc,ddl,ddr,vr,hd,vl,hu: 8% 7% 15% 10% 13% 12% 12% 11% 12%
    x264 [info]: i4 v,h,dc,ddl,ddr,vr,hd,vl,hu: 11% 10% 5% 9% 15% 14% 14% 11% 12%
    x264 [info]: i8c dc,h,v,p: 56% 14% 12% 18%
    x264 [info]: Weighted P-Frames: Y:5.0% UV:2.9%
    x264 [info]: ref P L0: 46.0% 12.1% 18.0% 6.0% 5.1% 3.4% 3.2% 1.7% 1.7% 1.2% 1.3% 0.2% 0.0%
    x264 [info]: ref B L0: 72.8% 11.8% 5.7% 2.9% 2.0% 1.7% 1.3% 1.0% 0.5% 0.2%
    x264 [info]: ref B L1: 92.3% 7.7%
    x264 [info]: kb/s:4467.15
    x264 [total]: encoded 187393 frames, 7.89 fps, 4467.15 kb/s, duration 6:35:43.96
    General
    Unique ID : 254157696861651602454261649059814903362 (0xBF34FDED0AEFB126950E1F5814AD0E42)
    Complete name : R:\Video 3 New\The Big Short 2015\The Big Short (2015)\The Big Short (2015).iTunes.mkv
    Format : Matroska
    Format version : Version 4 / Version 2
    File size : 4.82 GiB
    Duration : 2h 10mn
    Overall bit rate : 5 294 Kbps
    Encoded date : UTC 2016-04-19 17:58:39
    Writing application : mkvmerge v6.7.0 ('Back to the Ground') 32bit built on Jan 8 2014 15:03:17
    Writing library : libebml v1.3.0 + libmatroska v1.4.1
    Video
    ID : 1
    Format : AVC
    Format/Info : Advanced Video Codec
    Format profile : High@L4.1
    Format settings, CABAC : Yes
    Format settings, ReFrames : 11 frames
    Codec ID : V_MPEG4/ISO/AVC
    Duration : 2h 10mn
    Bit rate : 4 356 Kbps
    Width : 1 152 pixels
    Height : 480 pixels
    Display aspect ratio : 2.40:1
    Frame rate mode : Constant
    Frame rate : 23.976 (24000/1001) fps
    Color space : YUV
    Chroma subsampling : 4:2:0
    Bit depth : 8 bits
    Scan type : Progressive
    Bits/(Pixel*Frame) : 0.329
    Stream size : 3.96 GiB (82%)
    Title : The Big Short (2015) [perectracker.org]
    Writing library : x264 core 148 r2638kMod 7599210
    Encoding settings : cabac=1 / ref=11 / deblock=1:-2:-2 / analyse=0x3:0x133 / me=umh / subme=11 / psy=1 / fade_compensate=0.00 / psy_rd=1.00:0.05 / mixed_ref=1 / me_range=48 / chroma_me=1 / trellis=2 / 8x8dct=1 / cqm=0 / deadzone=21,11 / fast_pskip=0 / chroma_qp_offset=-3 / threads=12 / lookahead_threads=3 / sliced_threads=0 / nr=0 / decimate=1 / interlaced=0 / bluray_compat=0 / constrained_intra=0 / fgo=0 / bframes=14 / b_pyramid=2 / b_adapt=2 / b_bias=0 / direct=3 / weightb=1 / open_gop=0 / weightp=2 / keyint=250 / keyint_min=23 / scenecut=40 / intra_refresh=0 / rc_lookahead=60 / rc=crf / mbtree=0 / crf=18.8000 / qcomp=0.60 / qpmin=0 / qpmax=69 / qpstep=4 / vbv_maxrate=50000 / vbv_bufsize=62500 / crf_max=0.0 / nal_hrd=none / filler=0 / ip_ratio=1.40 / pb_ratio=1.30 / aq=3:0.90
    Language : English
    Default : Yes
    Forced : No
    Audio #1
    ID : 2
    Format : AC-3
    Format/Info : Audio Coding 3
    Mode extension : CM (complete main)
    Format settings, Endianness : Big
    Codec ID : A_AC3
    Duration : 2h 10mn
    Bit rate mode : Constant
    Bit rate : 384 Kbps
    Channel(s) : 6 channels
    Channel positions : Front: L C R, Side: L R, LFE
    Sampling rate : 48.0 KHz
    Frame rate : 31.250 fps (1536 spf)
    Compression mode : Lossy
    Stream size : 358 MiB (7%)
    Title : DUB [iTunes]
    Language : Russian
    Default : Yes
    Forced : No
    Audio #2
    ID : 3
    Format : AC-3
    Format/Info : Audio Coding 3
    Mode extension : CM (complete main)
    Format settings, Endianness : Big
    Codec ID : A_AC3
    Duration : 2h 10mn
    Bit rate mode : Constant
    Bit rate : 448 Kbps
    Channel(s) : 6 channels
    Channel positions : Front: L C R, Side: L R, LFE
    Sampling rate : 48.0 KHz
    Frame rate : 31.250 fps (1536 spf)
    Compression mode : Lossy
    Stream size : 417 MiB (8%)
    Title : Original
    Language : English
    Default : No
    Forced : No
    Text #1
    ID : 4
    Format : UTF-8
    Codec ID : S_TEXT/UTF8
    Codec ID/Info : UTF-8 Plain Text
    Title : Forced
    Language : Russian
    Default : Yes
    Forced : No
    Text #2
    ID : 5
    Format : UTF-8
    Codec ID : S_TEXT/UTF8
    Codec ID/Info : UTF-8 Plain Text
    Title : Full
    Language : English
    Default : No
    Forced : No
    Text #3
    ID : 6
    Format : UTF-8
    Codec ID : S_TEXT/UTF8
    Codec ID/Info : UTF-8 Plain Text
    Title : SDH
    Language : English
    Default : No
    Forced : No
    Menu
    00:00:00.000 : en:00:00:00.000
    00:09:24.564 : en:00:09:24.564
    00:15:47.572 : en:00:15:47.572
    00:19:03.059 : en:00:19:03.059
    00:25:59.516 : en:00:25:59.516
    00:28:49.978 : en:00:28:49.978
    00:37:24.242 : en:00:37:24.242
    00:42:54.489 : en:00:42:54.489
    00:49:36.682 : en:00:49:36.682
    00:57:01.835 : en:00:57:01.835
    01:02:09.893 : en:01:02:09.893
    01:10:52.957 : en:01:10:52.957
    01:17:03.244 : en:01:17:03.244
    01:20:57.102 : en:01:20:57.102
    01:29:53.221 : en:01:29:53.221
    01:34:37.046 : en:01:34:37.046
    01:41:15.903 : en:01:41:15.903
    01:45:30.491 : en:01:45:30.491
    01:49:34.651 : en:01:49:34.651
    01:55:16.076 : en:01:55:16.076
    02:03:44.500 : en:02:03:44.500

    Скриншоты




    Rip перезалит [DUB iTunes, sub rus Forced]
    Скачать .torrent

    Скачать торрент-файл бесплатно и на максимальной скорости!

    Как скачивать? · Что такое торрент? · Рейтинг и ограничения

    !ВНИМАНИЕ!
    Сайт не распространяет и не хранит электронные версии произведений, а занимается лишь лишь предоставлением доступа к создаваемому пользователями каталогу ссылок на торрент-файлы, которые содержат только списки хеш-сумм, убедительная просьба с жалобами обращаться напрямую к пользователю. Файлы для обмена на трекере предоставлены пользователями сайта, и администрация не несёт ответственности за их содержание. Просьба не заливать файлы, защищенные авторскими правами, а также файлы нелегального содержания!


    _________________
    [Профиль] [ЛС]
    Показать сообщения:    
    Ответить на тему

    Текущее время: Сегодня, в 08:23

    Часовой пояс: GMT + 2



    Вы не можете начинать темы
    Вы не можете отвечать на сообщения
    Вы не можете редактировать свои сообщения
    Вы не можете удалять свои сообщения
    Вы не можете голосовать в опросах
    Вы не можете прикреплять файлы к сообщениям
    Вы не можете скачивать файлы