BitTorrentTracker PerecTracker.org
BitTorrentTracker PerecTracker.org
    
Регистрация  ·  Вход
 
 · 
Забыли пароль?

  • Бэтмен: Нападение на Аркхэм / Batman: Assault on Arkham (Джей Олива / Jay Oliva, Этан Сполдинг / Ethan Spaulding) [2014, Мультфильм, боевик, триллер, криминал, BDRip] DVO

    Ответить на тему
     
    Автор Сообщение

    Flirldrerve

    Создавать темы 19-Апр-2016 21:55

           

    [Цитировать]

    Бэтмен: Нападение на Аркхэм / Batman: Assault on Arkham--Страна: США
    Жанр: Мультфильм, боевик, триллер, криминал
    Продолжительность: 01:15:55
    Год выпуска: 2014
    -Перевод: Профессиональный (двухголосый, закадровый)
    Субтитры: нет
    Режиссёры: Джей Олива / Jay Oliva, Этан Сполдинг / Ethan Spaulding
    -В ролях:
    Мэттью Грей Гублер, Джанкарло Эспозито, Нил МакДонаф, Джон Ди Маджио, Трой Бэйкер, Нолан Норт, Си Си Эйч Паундер, Кевин Конрой, Хинден Уолш, Дженнифер Хейл
    -Описание:
    Секретная правительственная организация формирует спец группу «Суицидальный отряд», состоящую из наемников и убийц, чтобы проникнуть в психиатрическую лечебницу Аркхам и добыть похищенную, засекреченную информацию, из рук заключенного — Эдварда Нигмы «Загадочника».
    -Релиз групп All Films, RG Torrents.ru и RG Мультфильмы-Сэмпл: https://www.sendspace.com/file/efyzbc-Качество: BDRip - Исходник (Спасибо -Azureus-)
    Формат: AVI
    Видео: 704x400 (1.76:1), 23.976 fps, XviD build 73 ~2212 kbps avg, 0.33 bit/pixel
    Аудио: 48 kHz, AC3 Dolby Digital, 3/2 (L,C,R,l,r) + LFE ch, ~384 kbps
    -

    Отчёт MediaInfo

    General
    Complete name : C:\Users\Максим\Desktop\Мои релизы\Batman.Assault.on.Arkham.2014.BDRip.polkera.avi
    Format : AVI
    Format/Info : Audio Video Interleave
    File size : 1.38 GiB
    Duration : 1h 15mn
    Overall bit rate : 2 606 Kbps
    Writing application : VirtualDubMod 1.5.10.3 | www.virtualdub-fr.org || (build 2550/release)
    Writing library : VirtualDubMod build 2550/release
    Video
    Format : MPEG-4 Visual
    Format profile : Streaming Video@L1
    Format settings, BVOP : Yes
    Format settings, QPel : No
    Format settings, GMC : No warppoints
    Format settings, Matrix : Custom
    Codec ID : XVID
    Codec ID/Hint : XviD
    Duration : 1h 15mn
    Bit rate : 2 212 Kbps
    Width : 704 pixels
    Height : 400 pixels
    Display aspect ratio : 16/9
    Frame rate : 23.976 fps
    Resolution : 24 bits
    Colorimetry : 4:2:0
    Scan type : Progressive
    Bits/(Pixel*Frame) : 0.328
    Stream size : 1.17 GiB (85%)
    Writing library : XviD 73
    Audio
    Format : AC-3
    Format/Info : Audio Coding 3
    Codec ID : 2000
    Duration : 1h 15mn
    Bit rate mode : Constant
    Bit rate : 384 Kbps
    Channel(s) : 6 channels
    Channel positions : Front: L C R, Surround: L R, LFE
    Sampling rate : 48.0 KHz
    Stream size : 209 MiB (15%)
    Alignment : Split accross interleaves
    Interleave, duration : 42 ms (1.00 video frame)
    Interleave, preload duration : 500 ms

    -

    Скриншоты

    -
    |
    |
    Скачать .torrent

    Скачать торрент-файл бесплатно и на максимальной скорости!

    Как скачивать? · Что такое торрент? · Рейтинг и ограничения

    !ВНИМАНИЕ!
    Сайт не распространяет и не хранит электронные версии произведений, а занимается лишь лишь предоставлением доступа к создаваемому пользователями каталогу ссылок на торрент-файлы, которые содержат только списки хеш-сумм, убедительная просьба с жалобами обращаться напрямую к пользователю. Файлы для обмена на трекере предоставлены пользователями сайта, и администрация не несёт ответственности за их содержание. Просьба не заливать файлы, защищенные авторскими правами, а также файлы нелегального содержания!


    _________________
    [Профиль] [ЛС]
    Показать сообщения:    
    Ответить на тему

    Текущее время: Сегодня, в 18:55

    Часовой пояс: GMT + 2



    Вы не можете начинать темы
    Вы не можете отвечать на сообщения
    Вы не можете редактировать свои сообщения
    Вы не можете удалять свои сообщения
    Вы не можете голосовать в опросах
    Вы не можете прикреплять файлы к сообщениям
    Вы не можете скачивать файлы