BitTorrentTracker PerecTracker.org
BitTorrentTracker PerecTracker.org
    
Регистрация  ·  Вход
 
 · 
Забыли пароль?

  • Игра на понижение / The Big Short (Адам МакКей / Adam McKay) [2015, США, драма, биография, BDRip-AVC] Dub + Sub (rus)

    Ответить на тему
     
    Автор Сообщение

    Light

    Создавать темы 19-Апр-2016 17:51

           

    [Цитировать]

    Игра на понижение / The Big Short«Неправдоподобная, но правдивая история»-Страна: США
    Жанр: драма, биография
    Год выпуска: 2015
    Продолжительность: 02:10:16
    Перевод: Профессиональный (полное дублирование) (iTunes)
    Cубтитры: русские (форс.)
    Навигация по главам: есть
    Режиссер: Адам МакКей / Adam McKay
    В ролях: Кристиан Бэйл, Стив Карелл, Райан Гослинг, Брэд Питт, Мелисса Лео, Хамиш Линклэйтер, Джон Магаро, Рейф Сполл, Джереми Стронг, Мариса Томей, Финн Уиттрок, Стэнли Вонг, Байрон Манн, Трэйси Леттс, Карен Гиллан, Селена Гомес, Макс Гринфилд, Марго Робби, Руди Айзенцопф, Кэйси Гров
    Описание: Когда речь идет о деньгах, совесть молчит. А уж если речь об огромных деньгах!.. Это основанная на реальных событиях история нескольких провидцев, которые независимо друг от друга предсказали мировой экономический кризис 2008 года задолго до того, как о нем зашептались в кулуарах на Уолл-стрит. И предсказав, стали на нем зарабатывать. Сами того не желая.

    Качество видео: BDRip-AVC (исходник - BDRemux|The.Big.Short.2015.1080p.BluRay.REMUX.AVC.DTS-HD.MA.7.1-RARBG)
    Формат видео: MKV
    Видео: x264, 960x400 (2.40:1), 23,976 fps, ~2005 kbps, 0.218 bit/pixel
    Аудио: 48 kHz, AC3 Dolby Digital, 3/2 (L,C,R,l,r) + LFE ch, ~384 kbps
    Формат субтитров: softsub (SRT)
    MediaInfo | x264 log
    Format : Matroska
    Format version : Version 4 / Version 2
    File size : 2.17 GiB
    Duration : 2h 10mn
    Overall bit rate : 2 387 Kbps
    Movie name : Игра на понижение / The Big Short (2015) :: AFM ::
    Encoded date : UTC 2016-04-19 06:27:41
    Writing application : mkvmerge v8.3.0 ('Over the Horizon') 32bit
    Writing library : libebml v1.3.1 + libmatroska v1.4.2
    Video
    ID : 1
    Format : AVC
    Format/Info : Advanced Video Codec
    Format profile : High@L4.1
    Format settings, CABAC : Yes
    Format settings, ReFrames : 10 frames
    Codec ID : V_MPEG4/ISO/AVC
    Duration : 2h 10mn
    Bit rate : 2 005 Kbps
    Width : 960 pixels
    Height : 400 pixels
    Display aspect ratio : 2.40:1
    Frame rate mode : Constant
    Frame rate : 23.976 fps
    Color space : YUV
    Chroma subsampling : 4:2:0
    Bit depth : 8 bits
    Scan type : Progressive
    Bits/(Pixel*Frame) : 0.218
    Stream size : 1.78 GiB (82%)
    Title : BDRip by AFM [RuTracker.org]
    Writing library : x264 core 148 r2665+53 6629127 t_mod_Custom [8-bit@all X86_64]
    Encoding settings : cabac=1 / ref=10 / deblock=1:-2:-2 / analyse=0x3:0x113 / me=umh / subme=10 / psy=1 / fade_compensate=0.00 / psy_rd=1.00:0.00 / mixed_ref=1 / me_range=32 / chroma_me=1 / trellis=2 / 8x8dct=1 / cqm=0 / deadzone=21,11 / fast_pskip=0 / chroma_qp_offset=-2 / threads=6 / lookahead_threads=1 / sliced_threads=0 / nr=0 / decimate=0 / interlaced=0 / bluray_compat=0 / constrained_intra=0 / fgo=0 / bframes=14 / b_pyramid=2 / b_adapt=2 / b_bias=0 / direct=1 / weightb=1 / open_gop=0 / weightp=2 / keyint=250 / keyint_min=23 / scenecut=40 / intra_refresh=0 / rc_lookahead=40 / rc=2pass / mbtree=0 / bitrate=2005 / ratetol=1.0 / qcomp=0.65 / qpmin=0:0:0 / qpmax=69:69:69 / qpstep=4 / cplxblur=20.0 / qblur=0.5 / vbv_maxrate=50000 / vbv_bufsize=62500 / nal_hrd=none / filler=0 / ip_ratio=1.27 / pb_ratio=1.30 / aq=1:0.90 / aq-sensitivity=10.00 / aq-factor=1.00:1.00:1.00 / aq2=0 / aq3=0 / zones=180610,187392,q=30
    Language : English
    Default : Yes
    Forced : No
    Audio
    ID : 2
    Format : AC-3
    Format/Info : Audio Coding 3
    Mode extension : CM (complete main)
    Format settings, Endianness : Big
    Codec ID : A_AC3
    Duration : 2h 10mn
    Bit rate mode : Constant
    Bit rate : 384 Kbps
    Channel(s) : 6 channels
    Channel positions : Front: L C R, Side: L R, LFE
    Sampling rate : 48.0 KHz
    Compression mode : Lossy
    Stream size : 358 MiB (16%)
    Title : Dub, AC3 5.1 ~384 kbps
    Language : Russian
    Default : Yes
    Forced : No
    Text
    ID : 3
    Format : UTF-8
    Codec ID : S_TEXT/UTF8
    Codec ID/Info : UTF-8 Plain Text
    Title : forced
    Language : Russian
    Default : Yes
    Forced : No
    Menu
    00:00:00.000 : en:Chapter 01
    00:09:24.564 : en:Chapter 02
    00:15:47.571 : en:Chapter 03
    00:19:03.058 : en:Chapter 04
    00:25:59.516 : en:Chapter 05
    00:28:49.978 : en:Chapter 06
    00:37:24.242 : en:Chapter 07
    00:42:54.488 : en:Chapter 08
    00:49:36.682 : en:Chapter 09
    00:57:01.835 : en:Chapter 10
    01:02:09.892 : en:Chapter 11
    01:10:52.957 : en:Chapter 12
    01:17:03.243 : en:Chapter 13
    01:20:57.102 : en:Chapter 14
    01:29:53.221 : en:Chapter 15
    01:34:37.046 : en:Chapter 16
    01:41:15.903 : en:Chapter 17
    01:45:30.490 : en:Chapter 18
    01:49:34.651 : en:Chapter 19
    01:55:16.075 : en:Chapter 20
    02:03:44.500 : en:Chapter 21

    x264

    x264 [info]: frame I:1268 Avg QP:17.42 size: 45083
    x264 [info]: frame P:42442 Avg QP:18.57 size: 21333
    x264 [info]: frame B:143682 Avg QP:19.89 size: 6223
    x264 [info]: consecutive B-frames: 2.8% 3.7% 12.0% 15.1% 16.5% 37.6% 4.5% 1.3% 1.2% 0.8% 0.8% 0.6% 0.6% 0.7% 1.9%
    x264 [info]: mb I I16..4: 33.4% 0.0% 66.6%
    x264 [info]: mb P I16..4: 33.7% 0.0% 0.0% P16..4: 59.3% 0.0% 0.0% 0.0% 0.0% skip: 7.0%
    x264 [info]: mb B I16..4: 9.1% 0.0% 0.0% B16..8: 29.4% 0.0% 0.0% direct:20.0% skip:41.5% L0:27.2% L1:36.0% BI:36.8%
    x264 [info]: final ratefactor: 18.31
    x264 [info]: coded y,uvDC,uvAC intra: 82.1% 71.9% 49.1% inter: 26.7% 20.9% 5.7%
    x264 [info]: i16 v,h,dc,p: 26% 15% 40% 19%
    x264 [info]: i4 v,h,dc,ddl,ddr,vr,hd,vl,hu: 20% 19% 14% 8% 8% 8% 8% 7% 8%
    x264 [info]: i8c dc,h,v,p: 57% 17% 21% 6%
    x264 [info]: Weighted P-Frames: Y:3.6% UV:1.5%
    x264 [info]: kb/s:1900.43

    Скриншоты

    с названием

    Скачать .torrent

    Скачать торрент-файл бесплатно и на максимальной скорости!

    Как скачивать? · Что такое торрент? · Рейтинг и ограничения

    !ВНИМАНИЕ!
    Сайт не распространяет и не хранит электронные версии произведений, а занимается лишь лишь предоставлением доступа к создаваемому пользователями каталогу ссылок на торрент-файлы, которые содержат только списки хеш-сумм, убедительная просьба с жалобами обращаться напрямую к пользователю. Файлы для обмена на трекере предоставлены пользователями сайта, и администрация не несёт ответственности за их содержание. Просьба не заливать файлы, защищенные авторскими правами, а также файлы нелегального содержания!


    _________________
    [Профиль] [ЛС]
    Показать сообщения:    
    Ответить на тему

    Текущее время: Сегодня, в 00:28

    Часовой пояс: GMT + 2



    Вы не можете начинать темы
    Вы не можете отвечать на сообщения
    Вы не можете редактировать свои сообщения
    Вы не можете удалять свои сообщения
    Вы не можете голосовать в опросах
    Вы не можете прикреплять файлы к сообщениям
    Вы не можете скачивать файлы