BitTorrentTracker PerecTracker.org
BitTorrentTracker PerecTracker.org
    
Регистрация  ·  Вход
 
 · 
Забыли пароль?

  • Приключения Супергероев: Морозный Бой / Marvel Super Hero Adventures: Frost Fight / (Митч Шауэр / Mitch Schauer) [2015, мультфильм, приключения, WEB-DLRip] DVO (Black Show) + Original Eng + Sub (Rus, Eng)

    Ответить на тему
     
    Автор Сообщение

    Flirldrerve

    Создавать темы 19-Апр-2016 13:40

           

    [Цитировать]

    Приключения Супергероев: Морозный Бой / Marvel Super Hero Adventures: Frost Fight--Страна: США
    Жанр: Мультфильм, приключения
    Продолжительность: 01:13:58
    Год выпуска: 2015
    -Перевод: Любительский (двухголосый, закадровый) | Black Show
    Субтитры: русские + английские (полные, внешние, srt)
    Режиссёр: Митч Шауэр / Mitch Schauer
    -В ролях:
    Мик Вингерт, Мэттью Мерсер, Трэвис Уиллингэм, Фред Татаскьор, Грэй Гриффин, Трой Бэйкер, Энтони Дель Рио, Тревор Дивэлл, Кевин Майкл Ричардсон, Стивен Блум и др.
    -Описание:
    Подразделение супергероев Марвел пытается остановить Локи и снежного гиганта Имира от кражи силы Санта Клауса и подчинения всего мира себе.
    -Релиз групп All Films, RG Torrents.ru и RG Мультфильмы-Сэмпл: https://www.sendspace.com/file/crxqyz-Качество: WEB-DLRip - Исходник (Спасибо alekartem)
    Формат: AVI
    Видео: 704x400 (1.76:1), 23.976 fps, XviD build 73 ~2038 kbps avg, 0.30 bit/pixel
    Аудио: 48 kHz, AC3 Dolby Digital, 3/2 (L,C,R,l,r) + LFE ch, ~384 kbps | Rus
    Аудио 2: 48 kHz, AC3 Dolby Digital, 3/2 (L,C,R,l,r) + LFE ch, ~384 kbps | Eng
    -

    Отчёт MediaInfo

    General
    Complete name : C:\Users\Максим\Desktop\Мои релизы\Marvels.Super.Hero.Adventures.Frost.Fight.2015.WEB-DLRip.polkera\Marvels.Super.Hero.Adventures.Frost.Fight.2015.WEB-DLRip.polkera.avi
    Format : AVI
    Format/Info : Audio Video Interleave
    File size : 1.46 GiB
    Duration : 1h 13mn
    Overall bit rate : 2 822 Kbps
    Writing application : VirtualDubMod 1.5.10.3 | www.virtualdub-fr.org || (build 2550/release)
    Writing library : VirtualDubMod build 2550/release
    Video
    Format : MPEG-4 Visual
    Format profile : Streaming Video@L1
    Format settings, BVOP : Yes
    Format settings, QPel : No
    Format settings, GMC : No warppoints
    Format settings, Matrix : Custom
    Codec ID : XVID
    Codec ID/Hint : XviD
    Duration : 1h 13mn
    Bit rate : 2 040 Kbps
    Width : 704 pixels
    Height : 400 pixels
    Display aspect ratio : 16/9
    Frame rate : 23.976 fps
    Resolution : 24 bits
    Colorimetry : 4:2:0
    Scan type : Progressive
    Bits/(Pixel*Frame) : 0.302
    Stream size : 1.05 GiB (72%)
    Writing library : XviD 73
    Audio #1
    Format : AC-3
    Format/Info : Audio Coding 3
    Codec ID : 2000
    Duration : 1h 13mn
    Bit rate mode : Constant
    Bit rate : 384 Kbps
    Channel(s) : 6 channels
    Channel positions : Front: L C R, Surround: L R, LFE
    Sampling rate : 48.0 KHz
    Stream size : 203 MiB (14%)
    Alignment : Split accross interleaves
    Interleave, duration : 42 ms (1.00 video frame)
    Interleave, preload duration : 500 ms
    Audio #2
    Format : AC-3
    Format/Info : Audio Coding 3
    Codec ID : 2000
    Duration : 1h 13mn
    Bit rate mode : Constant
    Bit rate : 384 Kbps
    Channel(s) : 6 channels
    Channel positions : Front: L C R, Surround: L R, LFE
    Sampling rate : 48.0 KHz
    Stream size : 203 MiB (14%)
    Alignment : Split accross interleaves
    Interleave, duration : 42 ms (1.00 video frame)
    Interleave, preload duration : 500 ms

    -

    Скриншоты

    -
    |
    |
    Скачать .torrent

    Скачать торрент-файл бесплатно и на максимальной скорости!

    Как скачивать? · Что такое торрент? · Рейтинг и ограничения

    !ВНИМАНИЕ!
    Сайт не распространяет и не хранит электронные версии произведений, а занимается лишь лишь предоставлением доступа к создаваемому пользователями каталогу ссылок на торрент-файлы, которые содержат только списки хеш-сумм, убедительная просьба с жалобами обращаться напрямую к пользователю. Файлы для обмена на трекере предоставлены пользователями сайта, и администрация не несёт ответственности за их содержание. Просьба не заливать файлы, защищенные авторскими правами, а также файлы нелегального содержания!


    _________________
    [Профиль] [ЛС]
    Показать сообщения:    
    Ответить на тему

    Текущее время: Сегодня, в 03:11

    Часовой пояс: GMT + 2



    Вы не можете начинать темы
    Вы не можете отвечать на сообщения
    Вы не можете редактировать свои сообщения
    Вы не можете удалять свои сообщения
    Вы не можете голосовать в опросах
    Вы не можете прикреплять файлы к сообщениям
    Вы не можете скачивать файлы