BitTorrentTracker PerecTracker.org
BitTorrentTracker PerecTracker.org
    
Регистрация  ·  Вход
 
 · 
Забыли пароль?

  • Победа на кончике жезла / La victoire au bout du baton (Жан-Мишель Вернер / Jean-Michel Verner) [2012, Франция, комедия, DVB] Original (Fre) + Sub (Rus, Eng, Fre, Deu)

    Ответить на тему
     
    Автор Сообщение

    Light

    Создавать темы 19-Апр-2016 05:15

           

    [Цитировать]

    Победа на кончике жезла
    La victoire au bout du bâton-Страна: Франция
    Жанр: комедия
    Год выпуска: 2012
    Продолжительность: 01:26:20Перевод: Субтитры (перевод Е.Маньен, Éclair Group)
    Cубтитры: русские, английские, французские, немецкие, нидердандские, румынские
    Оригинальная аудиодорожка: французский
    Режиссер: Жан-Мишель Вернер / Jean-Michel Verner
    В ролях: Мари-Кристин Адам / Marie-Christine Adam (Louise), Андреа Ферреоль / Andréa Ferréol (Claudette), Поль Бельмондо / Paul Belmondo (Djeff), Жеральдин Луп / Géraldine Loup (La caissiere), Клер Филипп / Claire Philippe (France), Жанна Савари / Jeanne Savary (Sylvianne)
    Описание: После смерти деспотичного мужа 60-летняя Луиза желает почувствовать всю прелесть свободной жизни и отправиться в путешествие. Но, как оказалось, ей в наследство достались лишь долги, и Луиза осталась практически без средств к существованию. Ловелас-доктор дает дельный совет: местному клубу нужен человек, который смог бы расшевелить это провинциальное "Сонное царство". Идея приходит сама собой – Луиза любит танцевать и снова, как в молодости, хочет стать мажореткой. С помощью энергичной подруги Клодетт и хореографа Джеффа она решает создать труппу мажореток в своей деревне и победить в региональном конкурсе. Но путь к поставленной цели оказался намного сложнее, чем ожидалось вначале…-Андреа Ферреоль (1947 г.р.) - одна из знаковых актрис французского и европейского экрана, известна любителям кино по таким крупным европейским кинопроектам, как фильм "Большая жратва" (1973) режиссера Марко Феррери, "Жестяной барабан" (1979) Фолькера Шлёндорфа, "Последнее метро" (1980) Франсуа Трюффо, "Зед и два нуля" (1985) Питера Гринуэя, "Франческо" (1989) Лилианы Кавани.
    Поль Александр Бельмондо (1963 г.р.) – сын известного французского актера Жана-Поля Бельмондо, бывший пилот Формулы-1. В Формуле-1 выступал за команду Пасифик в сезоне 1994 года. Вместе с отцом снялся в фильмах "Баловень судьбы" (1988) и "Отверженные" (1994), с которых и началась его актерская карьера.-
    Доп. информация: Hot Bird (13.0°E) TV5MONDE Europe DVB-S

    Качество видео: DVB
    Формат видео: TS
    Видео: MPEG Video 2, 720x576@1024x576 (16:9), 25 fps, ~3245 kbps avg, 0.313 bit/pixel
    Аудио: MPEG Audio 2, 2 ch, 48 kHz, 192 kbps - французский
    Формат субтитров: PGS

    MediaInfo

    GeneralID : 1 (0x1)Complete name : [apreder]La_victoire_au_bout_du_baton(2012)DVB.tsFormat : MPEG-TSFile size : 2.18 GiBDuration : 1h 26mnOverall bit rate mode : VariableOverall bit rate : 3 618 KbpsMaximum Overall bit rate : 35.5 Mbps
    VideoID : 4113 (0x1011)Menu ID : 1 (0x1)Format : MPEG VideoFormat version : Version 2Format profile : Main@MainFormat settings, BVOP : YesFormat settings, Matrix : CustomFormat settings, GOP : M=4, N=12Format settings, picture structure : FrameCodec ID : 2Duration : 1h 26mnBit rate mode : VariableBit rate : 3 245 KbpsWidth : 720 pixelsHeight : 576 pixelsDisplay aspect ratio : 16:9Frame rate : 25.000 fpsStandard : PALColor space : YUVChroma subsampling : 4:2:0Bit depth : 8 bitsScan type : InterlacedScan order : Top Field FirstCompression mode : LossyBits/(Pixel*Frame) : 0.313Time code of first frame : 00:00:00:00Time code source : Group of pictures headerGOP, Open/Closed : OpenGOP, Open/Closed of first frame : ClosedStream size : 1.96 GiB (90%)
    AudioID : 4352 (0x1100)Menu ID : 1 (0x1)Format : MPEG AudioFormat version : Version 1Format profile : Layer 2Mode : Joint stereoMode extension : Intensity Stereo + MS StereoCodec ID : 4Duration : 1h 26mnBit rate mode : ConstantBit rate : 192 KbpsChannel(s) : 2 channelsSampling rate : 48.0 KHzCompression mode : LossyStream size : 119 MiB (5%)Language : French
    Text #1ID : 4608 (0x1200)Menu ID : 1 (0x1)Format : PGSCodec ID : 144Duration : 1h 26mnDelay relative to video : 14s 360msLanguage : Russian
    Text #2ID : 4609 (0x1201)Menu ID : 1 (0x1)Format : PGSCodec ID : 144Duration : 1h 26mnDelay relative to video : 14s 400msLanguage : English
    Text #3ID : 4610 (0x1202)Menu ID : 1 (0x1)Format : PGSCodec ID : 144Language : French
    Text #4ID : 4611 (0x1203)Menu ID : 1 (0x1)Format : PGSCodec ID : 144Duration : 1h 26mnDelay relative to video : 14s 360msLanguage : German
    Text #5ID : 4612 (0x1204)Menu ID : 1 (0x1)Format : PGSCodec ID : 144Duration : 1h 26mnDelay relative to video : 14s 360msLanguage : Dutch
    Text #6ID : 4613 (0x1205)Menu ID : 1 (0x1)Format : PGSCodec ID : 144Delay relative to video : 14s 400msLanguage : Romanian

    Скриншот c названием фильма

    Скриншоты

    Резервные скриншоты


    -[562]
    Скачать .torrent

    Скачать торрент-файл бесплатно и на максимальной скорости!

    Как скачивать? · Что такое торрент? · Рейтинг и ограничения

    !ВНИМАНИЕ!
    Сайт не распространяет и не хранит электронные версии произведений, а занимается лишь лишь предоставлением доступа к создаваемому пользователями каталогу ссылок на торрент-файлы, которые содержат только списки хеш-сумм, убедительная просьба с жалобами обращаться напрямую к пользователю. Файлы для обмена на трекере предоставлены пользователями сайта, и администрация не несёт ответственности за их содержание. Просьба не заливать файлы, защищенные авторскими правами, а также файлы нелегального содержания!


    _________________
    [Профиль] [ЛС]
    Показать сообщения:    
    Ответить на тему

    Текущее время: Сегодня, в 19:48

    Часовой пояс: GMT + 2



    Вы не можете начинать темы
    Вы не можете отвечать на сообщения
    Вы не можете редактировать свои сообщения
    Вы не можете удалять свои сообщения
    Вы не можете голосовать в опросах
    Вы не можете прикреплять файлы к сообщениям
    Вы не можете скачивать файлы