Register  ·  Log in
Forgot password?

  • День ворон / Волшебный лес / Le Jour Des Corneilles (Жан Кристоф Дюссант / Jean Christophe Dessaint) [2012 г., Мультфильм, драма, приключения, BDRip] AVO (Гаврилов)

    Reply to topic
    Author Message


    Post 18-Apr-2016 22:47



    День ворон / Волшебный лес / Le Jour Des Corneilles--Страна: Франция
    Жанр: Мультфильм, драма, приключения
    Продолжительность: 01:34:19
    Год выпуска: 2012
    -Перевод: Авторский (одноголосый, закадровый) | Андрей Гаврилов
    Субтитры: нет
    Режиссёр: Жан Кристоф Дюссант / Jean Christophe Dessaint
    -В ролях:
    Жан Рено, Лоран Дойч, Изабель Карре, Клод Шаброль, Шанталь Нойвирт, Бруно Подалидес, Патрик Лигарде, Филипп Юшан, Жан-Кристоф Лорье, Элоди Хубер
    Это история маленького мальчика, жестокий и людоедоподобный отец которого растил его в глубоком лесу как животное и не выпускал за его пределы. Но однажды ему удается сбежать, и он добирается до ближайшего города, чтобы открыть для себя, что таких как он много и что на самом деле значит "любовь"...
    -Релиз групп All Films, RG и RG Мультфильмы-Сэмпл:Качество: BDRip - Исходник (Спасибо DFCbit)
    Формат: AVI
    Видео: 720x304 (2.37:1), 23.976 fps, XviD build 73 ~1755 kbps avg, 0.33 bit/pixel
    Аудио: 48 kHz, AC3 Dolby Digital, 3/2 (L,C,R,l,r) + LFE ch, ~448 kbps

    Отчёт MediaInfo

    Complete name : C:\Users\Максим\Desktop\Le.Jour.Des.Corneilles.2012.BDRip.polkera.avi
    Format : AVI
    Format/Info : Audio Video Interleave
    File size : 1.46 GiB
    Duration : 1h 34mn
    Overall bit rate : 2 213 Kbps
    Writing application : VirtualDubMod | || (build 2550/release)
    Writing library : VirtualDubMod build 2550/release
    Format : MPEG-4 Visual
    Format profile : Streaming Video@L1
    Format settings, BVOP : Yes
    Format settings, QPel : No
    Format settings, GMC : No warppoints
    Format settings, Matrix : Custom
    Codec ID : XVID
    Codec ID/Hint : XviD
    Duration : 1h 34mn
    Bit rate : 1 755 Kbps
    Width : 720 pixels
    Height : 304 pixels
    Display aspect ratio : 2.35
    Frame rate : 23.976 fps
    Resolution : 24 bits
    Colorimetry : 4:2:0
    Scan type : Progressive
    Bits/(Pixel*Frame) : 0.334
    Stream size : 1.16 GiB (79%)
    Writing library : XviD 73
    Format : AC-3
    Format/Info : Audio Coding 3
    Codec ID : 2000
    Duration : 1h 34mn
    Bit rate mode : Constant
    Bit rate : 448 Kbps
    Channel(s) : 6 channels
    Channel positions : Front: L C R, Surround: L R, LFE
    Sampling rate : 48.0 KHz
    Stream size : 302 MiB (20%)
    Alignment : Split accross interleaves
    Interleave, duration : 42 ms (1.00 video frame)
    Interleave, preload duration : 500 ms



    Download .torrent

    Download free and at maximum speed!

    How to Download? · What is a torrent? · Ratings and Limitations

    The site does not extend and does not store electronic(digital) versions of products, and only gives access to a reference catalogue created by users on torrent-files which contain only lists of the hash-sums, the earnest entreaty, with complaints(abuse) to access directly to the user. Files for an exchange on tracker are given by users of a site, and the administration does not bear the responsibility for their maintenance. The request to not fill in the files protected by copyrights, and also files of the illegal maintenance!

    [Profile] [PM]
    Display posts from previous:    
    Reply to topic

    The time now is: Today 20:13

    All times are GMT + 3 Hours

    You cannot post new topics in this forum
    You cannot reply to topics in this forum
    You cannot edit your posts in this forum
    You cannot delete your posts in this forum
    You cannot vote in polls in this forum
    You cannot attach files in this forum
    You cannot download files in this forum