BitTorrentTracker PerecTracker.org
BitTorrentTracker PerecTracker.org
    
Регистрация  ·  Вход
 
 · 
Забыли пароль?

  • День ворон / Волшебный лес / Le Jour Des Corneilles (Жан Кристоф Дюссант / Jean Christophe Dessaint) [2012 г., Мультфильм, драма, приключения, BDRip] AVO (Гаврилов)

    Ответить на тему
     
    Автор Сообщение

    Flirldrerve

    Создавать темы 18-Апр-2016 21:47

           

    [Цитировать]

    День ворон / Волшебный лес / Le Jour Des Corneilles--Страна: Франция
    Жанр: Мультфильм, драма, приключения
    Продолжительность: 01:34:19
    Год выпуска: 2012
    -Перевод: Авторский (одноголосый, закадровый) | Андрей Гаврилов
    Субтитры: нет
    Режиссёр: Жан Кристоф Дюссант / Jean Christophe Dessaint
    -В ролях:
    Жан Рено, Лоран Дойч, Изабель Карре, Клод Шаброль, Шанталь Нойвирт, Бруно Подалидес, Патрик Лигарде, Филипп Юшан, Жан-Кристоф Лорье, Элоди Хубер
    -Описание:
    Это история маленького мальчика, жестокий и людоедоподобный отец которого растил его в глубоком лесу как животное и не выпускал за его пределы. Но однажды ему удается сбежать, и он добирается до ближайшего города, чтобы открыть для себя, что таких как он много и что на самом деле значит "любовь"...
    -Релиз групп All Films, RG Torrents.ru и RG Мультфильмы-Сэмпл: https://www.sendspace.com/file/3ubxry-Качество: BDRip - Исходник (Спасибо DFCbit)
    Формат: AVI
    Видео: 720x304 (2.37:1), 23.976 fps, XviD build 73 ~1755 kbps avg, 0.33 bit/pixel
    Аудио: 48 kHz, AC3 Dolby Digital, 3/2 (L,C,R,l,r) + LFE ch, ~448 kbps
    -

    Отчёт MediaInfo

    General
    Complete name : C:\Users\Максим\Desktop\Le.Jour.Des.Corneilles.2012.BDRip.polkera.avi
    Format : AVI
    Format/Info : Audio Video Interleave
    File size : 1.46 GiB
    Duration : 1h 34mn
    Overall bit rate : 2 213 Kbps
    Writing application : VirtualDubMod 1.5.10.3 | www.virtualdub-fr.org || (build 2550/release)
    Writing library : VirtualDubMod build 2550/release
    Video
    Format : MPEG-4 Visual
    Format profile : Streaming Video@L1
    Format settings, BVOP : Yes
    Format settings, QPel : No
    Format settings, GMC : No warppoints
    Format settings, Matrix : Custom
    Codec ID : XVID
    Codec ID/Hint : XviD
    Duration : 1h 34mn
    Bit rate : 1 755 Kbps
    Width : 720 pixels
    Height : 304 pixels
    Display aspect ratio : 2.35
    Frame rate : 23.976 fps
    Resolution : 24 bits
    Colorimetry : 4:2:0
    Scan type : Progressive
    Bits/(Pixel*Frame) : 0.334
    Stream size : 1.16 GiB (79%)
    Writing library : XviD 73
    Audio
    Format : AC-3
    Format/Info : Audio Coding 3
    Codec ID : 2000
    Duration : 1h 34mn
    Bit rate mode : Constant
    Bit rate : 448 Kbps
    Channel(s) : 6 channels
    Channel positions : Front: L C R, Surround: L R, LFE
    Sampling rate : 48.0 KHz
    Stream size : 302 MiB (20%)
    Alignment : Split accross interleaves
    Interleave, duration : 42 ms (1.00 video frame)
    Interleave, preload duration : 500 ms

    -

    Скриншоты

    -
    |
    |
    Скачать .torrent

    Скачать торрент-файл бесплатно и на максимальной скорости!

    Как скачивать? · Что такое торрент? · Рейтинг и ограничения

    !ВНИМАНИЕ!
    Сайт не распространяет и не хранит электронные версии произведений, а занимается лишь лишь предоставлением доступа к создаваемому пользователями каталогу ссылок на торрент-файлы, которые содержат только списки хеш-сумм, убедительная просьба с жалобами обращаться напрямую к пользователю. Файлы для обмена на трекере предоставлены пользователями сайта, и администрация не несёт ответственности за их содержание. Просьба не заливать файлы, защищенные авторскими правами, а также файлы нелегального содержания!


    _________________
    [Профиль] [ЛС]
    Показать сообщения:    
    Ответить на тему

    Текущее время: Сегодня, в 08:42

    Часовой пояс: GMT + 2



    Вы не можете начинать темы
    Вы не можете отвечать на сообщения
    Вы не можете редактировать свои сообщения
    Вы не можете удалять свои сообщения
    Вы не можете голосовать в опросах
    Вы не можете прикреплять файлы к сообщениям
    Вы не можете скачивать файлы