BitTorrentTracker PerecTracker.org
BitTorrentTracker PerecTracker.org
    
Регистрация  ·  Вход
 
 · 
Забыли пароль?

  • [ATV3] Здравствуй, папа, Новый год / Daddy\'s Home (Шон Андерс / Sean Anders) [2015, США, Комедия, BDRip, HD (1080p)] DUB + Original + sub (rus, eng)

    Ответить на тему
     
    Автор Сообщение

    rechyn

    Создавать темы 18-Апр-2016 21:47

           

    [Цитировать]

    Здравствуй, папа, Новый год / Daddy's Home
    «Dad vs step-dad»
    6.472 / 10 6.20 / 10
    -Год выпуска: 2015
    Страна: США
    Жанр: Комедия
    Продолжительность: 01:36:01
    Перевод: Дублированный (iTunes)
    Оригинальная аудиодорожка: Есть
    Cубтитры: Русские форсированные, Английские форсированные, Русские, Английские
    Режиссёр: Шон Андерс
    Сценарий: Брайан Барнс, Шон Андерс, Джон Моррис
    Продюсер: Уилл Феррелл, Крис Хенчи, Адам МакКей
    Оператор: Хулио Макат
    Композитор: Майкл Эндрюс
    Художник: Клэйтон Хартли, Эллиотт Глик, Кэрол Рэмси
    Монтаж: Эрик Киссак, Брэд Е. Уилхайт
    В ролях: Уилл Феррелл, Марк Уолберг, Линда Карделлини, Томас Хейден Чёрч, Скарлет Эстевез, Оуэн Ваккаро, Бобби Каннавале, Хэннибал Бёресс, Билл Бёрр, Джейми Денбо
    Сборы в США: $150 357 137
    Сборы в мире: + $90 003 255 = $240 360 392
    Сборы в России: $2 033 240
    Мировая премьера: 9 декабря 2015
    Премьера (РФ): 7 января 2016, «Централ Партнершип»
    Описание: Добрейший семьянин, топ-менеджер крупной радиостанции, очень старается стать самым лучшим папочкой для своих приемных детей. Но ребята не в восторге от его сиропных воспитательных методов. Ситуация осложняется, когда приезжает родной отец детей, бунтарь и тунеядец. Папашам предстоит выяснить, кто в доме хозяин.-Качество исходника: Blu-Ray (BlueBird)
    Качество: BDRip
    Тип: HD (1080p)
    Контейнер: M4V
    Видео: H.264, 1920x1080, 16:9, 8 000 Kbps, 23.976 (24000/1001) fps
    Аудио 1: Русский/Дублированный (iTunes), AAC / 2.0 / 154 Kbps / 48.0 KHz
    Аудио 2: Английский/Оригинальная дорожка , AAC / 2.0 / 156 Kbps / 48.0 KHz
    Аудио 3: Русский/Дублированный (iTunes), AC-3 / 5.1 / 640 Kbps / 48.0 KHz
    Аудио 4: Английский/Оригинальная дорожка , AC-3 / 5.1 / 640 Kbps / 48.0 KHz
    Субтитры 1: Русские форсированные
    Субтитры 2: Английские форсированные
    Субтитры 3: Русские полные
    Субтитры 4: Английские полные
    -

    iTunes Meta Tags

    Sort Name: Daddy's Home
    XID: Apple:vendor_id:2015-484428
    contentID: 1063386075
    Copyright: © MMXV Paramount Pictures Corporation and Red Granite Capital US, LLC All Rights Reserved.
    Screenwriters: Брайан Барнс, Шон Андерс, Джон Моррис
    Producers: Уилл Феррелл, Крис Хенчи, Адам МакКей
    Director: Шон Андерс
    Cast: Уилл Феррелл, Марк Уолберг, Линда Карделлини, Томас Хейден Чёрч, Скарлет Эстевез, Оуэн Ваккаро, Бобби Каннавале, Хэннибал Бёресс, Билл Бёрр, Джейми Денбо, Александр Рахленко, Всеволод Кузнецов, Татьяна Шитова, Юрий Деркач, Василиса Эльдарова
    Studio: Paramount
    Rating: 4
    Long Description: Отец двоих детей возвращается к своей бывшей жене, которая успела выйти замуж, и теперь его ждет соперничество с отчимом за внимание своих отпрысков.
    Description: Отец двоих детей возвращается к своей бывшей жене, которая успела выйти замуж, и теперь его ждет соперничество с отчимом за внимание своих отпрысков.
    Release Date: 2015-12-09T08:00:00Z
    Genre: Comedy
    Artist: Sean Anders
    Name: Daddy's Home

    MediaInfo

    General
    Complete name : /Users/imac/HandBrake/Daddy\'s Home (1080p HD).m4v
    Format : MPEG-4
    Codec ID : M4V  (M4V /M4A /mp42/isom)
    File size : 6.43 GiB
    Duration : 1h 36mn
    Overall bit rate mode : Variable
    Overall bit rate : 9 585 Kbps
    Movie name : Daddy\'s Home
    Performer : Sean Anders
    Director : Шон Андерс
    Actor : Уилл Феррелл / Марк Уолберг / Линда Карделлини / Томас Хейден Чёрч / Скарлет Эстевез / Оуэн Ваккаро / Бобби Каннавале / Хэннибал Бёресс / Билл Бёрр / Джейми Денбо / Александр Рахленко / Всеволод Кузнецов / Татьяна Шитова / Юрий Деркач / Василиса Эльдарова
    Screenplay by : Брайан Барнс / Шон Андерс / Джон Моррис
    Producer : Уилл Феррелл / Крис Хенчи / Адам МакКей
    Production studio : Paramount
    Genre : Comedy
    ContentType : Short Film
    Description : Отец двоих детей возвращается к своей бывшей жене, которая успела выйти замуж, и теперь его ждет соперничество с отчимом за внимание своих отпрысков.
    Recorded date : UTC 2015-12-09 08:00:00
    Encoded date : UTC 2016-04-18 10:15:05
    Tagged date : UTC 2016-04-18 10:21:28
    Copyright : © MMXV Paramount Pictures Corporation and Red Granite Capital US, LLC All Rights Reserved.
    Cover : Yes
    Rating : None
    Title/Sort : Daddy\'s Home
    LongDescription : Отец двоих детей возвращается к своей бывшей жене, которая успела выйти замуж, и теперь его ждет соперничество с отчимом за внимание своих отпрысков.
    AppleStoreCatalogID : 1063386075
    Vendor : Apple:vendor_id:2015-484428
    ContentRating : mpaa|PG-13|300|
    Video #1
    ID : 1
    Format : AVC
    Format/Info : Advanced Video Codec
    Format profile : High@L4
    Format settings, CABAC : Yes
    Format settings, ReFrames : 4 frames
    Codec ID : avc1
    Codec ID/Info : Advanced Video Coding
    Duration : 1h 36mn
    Source duration : 1h 36mn
    Bit rate : 8 000 Kbps
    Width : 1 920 pixels
    Height : 1 080 pixels
    Display aspect ratio : 16:9
    Frame rate mode : Variable
    Frame rate : 23.976 (24000/1001) fps
    Minimum frame rate : 23.810 fps
    Maximum frame rate : 24.272 fps
    Color space : YUV
    Chroma subsampling : 4:2:0
    Bit depth : 8 bits
    Scan type : Progressive
    Bits/(Pixel*Frame) : 0.161
    Stream size : 5.35 GiB (83%)
    Source stream size : 5.35 GiB (83%)
    Title : Main Program
    Writing library : x264 core 142 r2479 dd79a61
    Encoding settings : cabac=1 / ref=4 / deblock=1:-2:-2 / analyse=0x3:0x133 / me=umh / subme=10 / psy=1 / psy_rd=1.00:0.15 / mixed_ref=1 / me_range=32 / chroma_me=1 / trellis=2 / 8x8dct=1 / cqm=0 / deadzone=21,11 / fast_pskip=0 / chroma_qp_offset=-3 / threads=36 / lookahead_threads=8 / sliced_threads=0 / nr=0 / decimate=0 / interlaced=0 / bluray_compat=0 / constrained_intra=0 / bframes=16 / b_pyramid=2 / b_adapt=2 / b_bias=0 / direct=3 / weightb=1 / open_gop=0 / weightp=2 / keyint=240 / keyint_min=24 / scenecut=40 / intra_refresh=0 / rc_lookahead=60 / rc=2pass / mbtree=1 / bitrate=8000 / ratetol=1.0 / qcomp=0.70 / qpmin=0 / qpmax=69 / qpstep=4 / cplxblur=20.0 / qblur=0.5 / vbv_maxrate=25000 / vbv_bufsize=25000 / nal_hrd=none / filler=0 / ip_ratio=1.40 / aq=1:1.00
    Language : English
    Encoded date : UTC 2016-04-18 10:15:05
    Tagged date : UTC 2016-04-18 10:15:16
    Color range : Limited
    Color primaries : BT.709
    Transfer characteristics : BT.709
    Matrix coefficients : BT.709
    Menus : 10,11
    Video #2
    ID : 11
    Format : JPEG
    Codec ID : jpeg
    Duration : 1h 36mn
    Bit rate mode : Variable
    Bit rate : 929 bps
    Width : 640 pixels
    Height : 360 pixels
    Display aspect ratio : 16:9
    Frame rate mode : Variable
    Frame rate : 0.002 fps
    Minimum frame rate : 0.001 fps
    Maximum frame rate : 0.003 fps
    Color space : YUV
    Chroma subsampling : 4:2:0
    Bit depth : 8 bits
    Compression mode : Lossy
    Bits/(Pixel*Frame) : 2.016
    Stream size : 624 KiB (0%)
    Title : Chapter Images
    Language : English
    Default : No
    Encoded date : UTC 2016-04-18 10:15:22
    Tagged date : UTC 2016-04-18 10:15:23
    Menu For : 1
    Audio #1
    ID : 2
    Format : AAC
    Format/Info : Advanced Audio Codec
    Format profile : LC
    Codec ID : 40
    Duration : 1h 36mn
    Bit rate mode : Variable
    Bit rate : 154 Kbps
    Maximum bit rate : 260 Kbps
    Channel(s) : 2 channels
    Channel positions : Front: L R
    Sampling rate : 48.0 KHz
    Frame rate : 46.875 fps (1024 spf)
    Compression mode : Lossy
    Stream size : 106 MiB (2%)
    Title : Russian Stereo
    Language : Russian
    Default : Yes
    Alternate group : 1
    Encoded date : UTC 2016-04-18 10:15:05
    Tagged date : UTC 2016-04-18 10:15:14
    Fallback From : 4
    Subtitles : 6,8
    Menus : 10
    Audio #2
    ID : 3
    Format : AAC
    Format/Info : Advanced Audio Codec
    Format profile : LC
    Codec ID : 40
    Duration : 1h 36mn
    Bit rate mode : Variable
    Bit rate : 156 Kbps
    Maximum bit rate : 262 Kbps
    Channel(s) : 2 channels
    Channel positions : Front: L R
    Sampling rate : 48.0 KHz
    Frame rate : 46.875 fps (1024 spf)
    Compression mode : Lossy
    Stream size : 107 MiB (2%)
    Title : English Stereo
    Language : English
    Default : No
    Alternate group : 1
    Encoded date : UTC 2016-04-18 10:15:05
    Tagged date : UTC 2016-04-18 10:15:14
    Fallback From : 5
    Subtitles : 7,9
    Audio #3
    ID : 4
    Format : AC-3
    Format/Info : Audio Coding 3
    Mode extension : CM (complete main)
    Format settings, Endianness : Big
    Codec ID : ac-3
    Duration : 1h 36mn
    Bit rate mode : Constant
    Bit rate : 640 Kbps
    Channel(s) : 6 channels
    Channel positions : Front: L C R, Side: L R, LFE
    Sampling rate : 48.0 KHz
    Frame rate : 31.250 fps (1536 spf)
    Bit depth : 16 bits
    Compression mode : Lossy
    Stream size : 440 MiB (7%)
    Title : Russian DD 5.1
    Language : Russian
    Default : Inherited From: 2
    Alternate group : 1
    Encoded date : UTC 2016-04-18 10:15:05
    Tagged date : UTC 2016-04-18 10:15:12
    Fallback To : 2
    Subtitles : 6,8
    Audio #4
    ID : 5
    Format : AC-3
    Format/Info : Audio Coding 3
    Mode extension : CM (complete main)
    Format settings, Endianness : Big
    Codec ID : ac-3
    Duration : 1h 36mn
    Bit rate mode : Constant
    Bit rate : 640 Kbps
    Channel(s) : 6 channels
    Channel positions : Front: L C R, Side: L R, LFE
    Sampling rate : 48.0 KHz
    Frame rate : 31.250 fps (1536 spf)
    Bit depth : 16 bits
    Compression mode : Lossy
    Stream size : 440 MiB (7%)
    Title : English DD 5.1
    Language : English
    Default : No
    Alternate group : 1
    Encoded date : UTC 2016-04-18 10:15:05
    Tagged date : UTC 2016-04-18 10:15:12
    Fallback To : 3
    Subtitles : 7,9
    Text #1
    ID : 6
    Format : Timed Text
    Muxing mode : sbtl
    Codec ID : tx3g
    Duration : 1h 19mn
    Bit rate mode : Variable
    Bit rate : 1 bps
    Stream size : 590 Bytes (0%)
    Title : Russian forced
    Language : Russian
    Default : Yes
    Forced : Yes
    Alternate group : 2
    Encoded date : UTC 2016-04-18 10:15:05
    Tagged date : UTC 2016-04-18 10:15:05
    Subtitles For : 2,4
    Full Alternative : 8
    Text #2
    ID : 7
    Format : Timed Text
    Muxing mode : sbtl
    Codec ID : tx3g
    Duration : 11mn 53s
    Duration_FirstFrame : 11mn 47s
    Bit rate mode : Variable
    Bit rate : 1 bps
    Stream size : 59.0 Bytes (0%)
    Title : English forced
    Language : English
    Default : No
    Forced : Yes
    Alternate group : 2
    Encoded date : UTC 2016-04-18 10:15:05
    Tagged date : UTC 2016-04-18 10:15:05
    Subtitles For : 3,5
    Full Alternative : 9
    Text #3
    ID : 8
    Format : Timed Text
    Muxing mode : sbtl
    Codec ID : tx3g
    Duration : 1h 31mn
    Bit rate mode : Variable
    Bit rate : 158 bps
    Stream size : 106 KiB (0%)
    Title : Russian full
    Language : Russian
    Default : No
    Forced : No
    Alternate group : 2
    Encoded date : UTC 2016-04-18 10:15:05
    Tagged date : UTC 2016-04-18 10:15:05
    Subtitles For : 2,4
    Forced Alternative : 6
    Text #4
    ID : 9
    Format : Timed Text
    Muxing mode : sbtl
    Codec ID : tx3g
    Duration : 1h 34mn
    Bit rate mode : Variable
    Bit rate : 119 bps
    Stream size : 82.4 KiB (0%)
    Title : English full
    Language : English
    Default : No
    Forced : No
    Alternate group : 2
    Encoded date : UTC 2016-04-18 10:15:05
    Tagged date : UTC 2016-04-18 10:15:05
    Subtitles For : 3,5
    Forced Alternative : 7
    Menu #1
    00:00:00.000 : 00:00:00.000
    00:09:23.730 : 00:09:23.730
    00:19:57.071 : 00:19:57.071
    00:28:45.015 : 00:28:45.015
    00:35:35.050 : 00:35:35.050
    00:44:05.768 : 00:44:05.768
    00:55:54.726 : 00:55:54.726
    01:03:21.047 : 01:03:21.047
    01:12:08.199 : 01:12:08.199
    01:21:58.205 : 01:21:58.205
    01:31:15.261 : 01:31:15.261
    Menu #2
    ID : 10
    Codec ID : text
    Duration : 1h 36mn
    Language : English
    Encoded date : UTC 2016-04-18 10:15:16
    Tagged date : UTC 2016-04-18 10:15:16
    Bit rate mode : CBR
    Menu For : 2,1
    00:00:00.000 : 00:00:00.000
    00:09:23.730 : 00:09:23.730
    00:19:57.071 : 00:19:57.071
    00:28:45.015 : 00:28:45.015
    00:35:35.050 : 00:35:35.050
    00:44:05.768 : 00:44:05.768
    00:55:54.726 : 00:55:54.726
    01:03:21.047 : 01:03:21.047
    01:12:08.199 : 01:12:08.199
    01:21:58.205 : 01:21:58.205
    01:31:15.261 : 01:31:15.261

    x264 лог

    x264 [info]: frame I:1170  Avg QP:16.68  size:223122
    x264 [info]: frame P:34782 Avg QP:19.84  size: 72343
    x264 [info]: frame B:102196 Avg QP:20.46  size: 29086
    x264 [info]: consecutive B-frames:  2.5%  5.4% 24.7% 10.8% 16.2% 37.7%  1.9%  0.2%  0.1%  0.1%  0.1%  0.0%  0.0%  0.0%  0.0%  0.0%  0.2%
    x264 [info]: mb I  I16..4:  4.4% 92.0%  3.7%
    x264 [info]: mb P  I16..4:  2.0% 21.9%  0.8%  P16..4: 48.5% 10.1%  7.6%  0.1%  0.0%    skip: 9.0%
    x264 [info]: mb B  I16..4:  0.2%  5.2%  0.1%  B16..8: 38.0%  5.9%  1.2%  direct: 6.0%  skip:43.4%  L0:43.1% L1:45.8% BI:11.1%
    x264 [info]: 8x8 transform intra:91.3% inter:69.1%
    x264 [info]: direct mvs  spatial:97.4% temporal:2.6%
    x264 [info]: coded y,uvDC,uvAC intra: 84.9% 92.3% 78.7% inter: 17.3% 29.7% 13.2%
    x264 [info]: i16 v,h,dc,p: 31% 16%  8% 46%
    x264 [info]: i8 v,h,dc,ddl,ddr,vr,hd,vl,hu: 14% 10% 30%  6%  7%  8%  7%  8%  9%
    x264 [info]: i4 v,h,dc,ddl,ddr,vr,hd,vl,hu: 15%  9%  4%  9% 15% 16% 13% 10%  9%
    x264 [info]: i8c dc,h,v,p: 63% 14% 13% 10%
    x264 [info]: Weighted P-Frames: Y:0.9% UV:0.5%
    x264 [info]: ref P L0: 51.8%  9.0% 28.0%  8.2%  2.9%  0.0%
    x264 [info]: ref B L0: 80.5% 16.1%  3.3%
    x264 [info]: ref B L1: 91.6%  8.4%
    x264 [info]: kb/s:7983.16

    Скриншоты

    -

    Релиз подготовлен для просмотра на Apple TV, iPad, iPhone, iPod Touch.
    Для просмотра данного релиза на компьютере с ОС Windows рекомендуется использовать VLC media player
    Скачать .torrent

    Скачать торрент-файл бесплатно и на максимальной скорости!

    Как скачивать? · Что такое торрент? · Рейтинг и ограничения

    !ВНИМАНИЕ!
    Сайт не распространяет и не хранит электронные версии произведений, а занимается лишь лишь предоставлением доступа к создаваемому пользователями каталогу ссылок на торрент-файлы, которые содержат только списки хеш-сумм, убедительная просьба с жалобами обращаться напрямую к пользователю. Файлы для обмена на трекере предоставлены пользователями сайта, и администрация не несёт ответственности за их содержание. Просьба не заливать файлы, защищенные авторскими правами, а также файлы нелегального содержания!


    _________________
    [Профиль] [ЛС]
    Показать сообщения:    
    Ответить на тему

    Текущее время: Сегодня, в 09:59

    Часовой пояс: GMT + 2



    Вы не можете начинать темы
    Вы не можете отвечать на сообщения
    Вы не можете редактировать свои сообщения
    Вы не можете удалять свои сообщения
    Вы не можете голосовать в опросах
    Вы не можете прикреплять файлы к сообщениям
    Вы не можете скачивать файлы