BitTorrentTracker PerecTracker.org
BitTorrentTracker PerecTracker.org
    
Регистрация  ·  Вход
 
 · 
Забыли пароль?

  • Тачка №19 / Vehicle 19 (Мукунда Майкл Дьюил / Mukunda Michael Dewil) [2013, Триллер, боевик, HDRip] Dub

    Ответить на тему
     
    Автор Сообщение

    Light

    Создавать темы 18-Апр-2016 21:47

           

    [Цитировать]

    Тачка №19 / Vehicle 19«Он выбрал не ту тачку. Они нарвались не на того парня»Страна: США, ЮАР
    Жанр: боевик, триллер
    Год выпуска: 2013
    Продолжительность: 01:25:10
    Перевод: Профессиональный (полное дублирование) [Лицензия R5]
    Cубтитры: нет
    Оригинальная аудиодорожка: нет
    Режиссер: Мукунда Майкл Дьюил / Mukunda Michael Dewil
    В ролях: Пол Уокер, Наима МакЛин, Ги Де Виллерс, Лэйла Хайдариан, Тшепо Масеко, Андриан Мазив, Велиль Нзуза, Мангалисо Нгема, Эрнест Кубайи, Элиз Ван Никерк
    Описание: Рассказ пойдет про американца, который перевозит свидетеля, чтобы тот дал показания против коррумпированных полицейских. Последние всеми силами будут пытаться помешать свидетелю доехать до здания суда (живым).
    Группа
    желает всем приятного просмотра!Качество видео: HDRip / BDRip (1080p)
    Формат видео: AVI
    Видео: 720x304 (2.37:1), 23.976 fps, XviD build 65 ~2005 kbps avg, 0.38 bit/pixel
    Audio #1: 48 kHz, AC3 Dolby Digital, 3/2 (L,C,R,l,r) + LFE ch, ~448 kbps
    MediaInfo
    General
    Complete name : D:\Торренты\Vehicle 19_Drek_Rutracker.org.avi
    Format : AVI
    Format/Info : Audio Video Interleave
    File size : 1.47 GiB
    Duration : 1h 25mn
    Overall bit rate : 2 463 Kbps
    Writing application : VirtualDubMod 1.5.10.2 (build 2540/release)
    Writing library : VirtualDubMod build 2540/release
    Video
    ID : 0
    Format : MPEG-4 Visual
    Format profile : Advanced Simple@L5
    Format settings, BVOP : 1
    Format settings, QPel : No
    Format settings, GMC : No warppoints
    Format settings, Matrix : Custom
    Codec ID : XVID
    Codec ID/Hint : XviD
    Duration : 1h 25mn
    Bit rate : 2 005 Kbps
    Width : 720 pixels
    Height : 304 pixels
    Display aspect ratio : 2.35:1
    Frame rate : 23.976 (24000/1001) fps
    Color space : YUV
    Chroma subsampling : 4:2:0
    Bit depth : 8 bits
    Scan type : Progressive
    Compression mode : Lossy
    Bits/(Pixel*Frame) : 0.382
    Stream size : 1.19 GiB (81%)
    Writing library : XviD 65
    Audio
    ID : 1
    Format : AC-3
    Format/Info : Audio Coding 3
    Mode extension : CM (complete main)
    Format settings, Endianness : Big
    Codec ID : 2000
    Duration : 1h 25mn
    Bit rate mode : Constant
    Bit rate : 448 Kbps
    Channel(s) : 6 channels
    Channel positions : Front: L C R, Side: L R, LFE
    Sampling rate : 48.0 KHz
    Frame rate : 31.250 fps (1536 spf)
    Compression mode : Lossy
    Stream size : 273 MiB (18%)
    Alignment : Split accross interleaves
    Interleave, duration : 42 ms (1.00 video frame)
    Interleave, preload duratio : 500 ms
    Скриншоты
    Скачать .torrent

    Скачать торрент-файл бесплатно и на максимальной скорости!

    Как скачивать? · Что такое торрент? · Рейтинг и ограничения

    !ВНИМАНИЕ!
    Сайт не распространяет и не хранит электронные версии произведений, а занимается лишь лишь предоставлением доступа к создаваемому пользователями каталогу ссылок на торрент-файлы, которые содержат только списки хеш-сумм, убедительная просьба с жалобами обращаться напрямую к пользователю. Файлы для обмена на трекере предоставлены пользователями сайта, и администрация не несёт ответственности за их содержание. Просьба не заливать файлы, защищенные авторскими правами, а также файлы нелегального содержания!


    _________________
    [Профиль] [ЛС]
    Показать сообщения:    
    Ответить на тему

    Текущее время: Сегодня, в 16:32

    Часовой пояс: GMT + 2



    Вы не можете начинать темы
    Вы не можете отвечать на сообщения
    Вы не можете редактировать свои сообщения
    Вы не можете удалять свои сообщения
    Вы не можете голосовать в опросах
    Вы не можете прикреплять файлы к сообщениям
    Вы не можете скачивать файлы