BitTorrentTracker PerecTracker.org
BitTorrentTracker PerecTracker.org
    
Регистрация  ·  Вход
 
 · 
Забыли пароль?

  • Ты у меня одна (Дмитрий Астрахан) [1993 г., Мелодрама, DVDRip]

    Ответить на тему
     
    Автор Сообщение

    Flirldrerve

    Создавать темы 18-Апр-2016 17:42

           

    [Цитировать]

    Ты у меня одна--Страна: Россия
    Жанр: Мелодрама
    Продолжительность: 01:35:27
    Год выпуска: 1993
    -Перевод: не требуется
    Субтитры: нет
    Режиссёр: Дмитрий Астрахан
    -В ролях:
    Александр Збруев, Светлана Рябова, Марина Неелова, Александр Лыков, Ирина Мазуркевич, Виктор Гоголев, Андрей Федорцов, Анатолий Журавлев, Владимир Труханов, Сергей Лысов, Анна Банщикова, Ольга Васильева (Назарова), Артур Ваха, Марк Горонок, Денис Кириллов, Мария Лобачева, Иван Паршин, Александр Цыбульский
    -Описание:
    Любовь - настоящее безумие. Это было давно. Он даже не догадывался, что эта маленькая угловатая Аня влюблена в него по самые уши, так как сам был увлечен привлекательной одноклассницей, на которой в конце концов женится. Но пройдет много лет, и она вернется в Россию богатой американской бизнес-леди, чтобы если не добиться наконец своего, то хотя бы отомстить за растоптанную любовь.
    -Релиз групп All Films и RG Torrents.ru-Сэмпл: https://www.sendspace.com/file/zoupbt-Качество: DVDRip - Исходник (Спасибо intellect)
    Формат: AVI
    Видео: 592x448 (1.32:1), 25 fps, XviD build 73 ~954 kbps avg, 0.14 bit/pixel
    Аудио: 48 kHz, MPEG Layer 3, 2 ch, ~128.00 kbps avg
    -

    Отчёт MediaInfo

    General
    Complete name : C:\Users\Максим\Desktop\Ty.U.Menya.Odna.1993.DVDRip.745.polkera.avi
    Format : AVI
    Format/Info : Audio Video Interleave
    File size : 746 MiB
    Duration : 1h 35mn
    Overall bit rate : 1 093 Kbps
    Writing application : VirtualDubMod 1.5.10.3 | www.virtualdub-fr.org || (build 2550/release)
    Writing library : VirtualDubMod build 2550/release
    Video
    Format : MPEG-4 Visual
    Format profile : Streaming Video@L1
    Format settings, BVOP : Yes
    Format settings, QPel : No
    Format settings, GMC : No warppoints
    Format settings, Matrix : Custom
    Codec ID : XVID
    Codec ID/Hint : XviD
    Duration : 1h 35mn
    Bit rate : 955 Kbps
    Width : 592 pixels
    Height : 448 pixels
    Display aspect ratio : 4/3
    Frame rate : 25.000 fps
    Resolution : 24 bits
    Colorimetry : 4:2:0
    Scan type : Progressive
    Bits/(Pixel*Frame) : 0.144
    Stream size : 652 MiB (87%)
    Writing library : XviD 73
    Audio
    Format : MPEG Audio
    Format version : Version 1
    Format profile : Layer 3
    Codec ID : 55
    Codec ID/Hint : MP3
    Duration : 1h 35mn
    Bit rate mode : Constant
    Bit rate : 128 Kbps
    Channel(s) : 2 channels
    Sampling rate : 48.0 KHz
    Resolution : 16 bits
    Stream size : 87.4 MiB (12%)
    Alignment : Aligned on interleaves
    Interleave, duration : 40 ms (1.00 video frame)
    Interleave, preload duration : 504 ms
    Writing library : LAME3.99r
    Encoding settings : -m s -V 4 -q 2 -lowpass 17 -b 128

    -

    Скриншоты

    -
    |
    Скачать .torrent

    Скачать торрент-файл бесплатно и на максимальной скорости!

    Как скачивать? · Что такое торрент? · Рейтинг и ограничения

    !ВНИМАНИЕ!
    Сайт не распространяет и не хранит электронные версии произведений, а занимается лишь лишь предоставлением доступа к создаваемому пользователями каталогу ссылок на торрент-файлы, которые содержат только списки хеш-сумм, убедительная просьба с жалобами обращаться напрямую к пользователю. Файлы для обмена на трекере предоставлены пользователями сайта, и администрация не несёт ответственности за их содержание. Просьба не заливать файлы, защищенные авторскими правами, а также файлы нелегального содержания!


    _________________
    [Профиль] [ЛС]
    Показать сообщения:    
    Ответить на тему

    Текущее время: Сегодня, в 17:33

    Часовой пояс: GMT + 2



    Вы не можете начинать темы
    Вы не можете отвечать на сообщения
    Вы не можете редактировать свои сообщения
    Вы не можете удалять свои сообщения
    Вы не можете голосовать в опросах
    Вы не можете прикреплять файлы к сообщениям
    Вы не можете скачивать файлы