BitTorrentTracker PerecTracker.org
BitTorrentTracker PerecTracker.org
    
Регистрация  ·  Вход
 
 · 
Забыли пароль?

  • Ночная игра / Night Game (Питер Мастерсон / Peter Masterson) [1989, США, Триллер, Драма, Криминал, Слэшер, BDRemux 1080p] DVO (НТВ+) + Original Eng

    Ответить на тему
     
    Автор Сообщение

    Light

    Создавать темы 18-Апр-2016 17:42

           

    [Цитировать]

    -Ночная игра / Night Game-Страна: США
    Жанр: Триллер, Драма, Криминал, Слэшер
    Год выпуска: 1989
    Продолжительность: 01:35:45-Перевод: Профессиональный (двухголосый закадровый) НТВ+
    Cубтитры: нет
    Оригинальная аудиодорожка: английский-Режиссер: Питер Мастерсон / Peter Masterson
    В ролях: Рой Шайдер, Карен Янг, Лейн Смит, Ричард Брэдфорд, Пол Глисон, Карлин Глинн, Энтони Палмер, Алекс Моррис, Мэтт Карлсон, Рекс Линн-Описание: На пляжах Хьюстона происходят жестокие убийства молодых женщин. Единственной зацепкой для полиции становится факт, что убийства совершаются только в те дни, когда происходят матчи местной бейсбольной команды.-Сэмпл:-Тип релиза: BDRemux 1080p
    Контейнер: MKV
    Видео: MPEG-4 AVC Video / 27986 kbps / 1080p / 23,976 fps / 16:9 / High Profile 4.1
    Аудио: Russian / Dolby Digital Audio / 2.0 / 48 kHz / 192 kbps
    Аудио 2: English / DTS-HD Master Audio / 2.0 / 48 kHz / 2083 kbps / 24-bit (DTS Core: 2.0 / 48 kHz / 1509 kbps / 24-bit)
    Формат субтитров: softsub (SRT)

    MI

    GeneralUnique ID : 210280732527954401167873190966242423078 (0x9E329890335CB178975A977D30D1B126)Complete name : P:\Слэшеры\Ночная игра (1989. Night Game).mkvFormat : MatroskaFormat version : Version 4 / Version 2File size : 20.2 GiBDuration : 1h 35mnOverall bit rate mode : VariableOverall bit rate : 30.2 MbpsMovie name : Release for RuTrackerEncoded date : UTC 2016-04-15 17:07:47Writing application : mkvmerge v9.0.1 ('Obstacles') 64bitWriting library : libebml v1.3.3 + libmatroska v1.4.4Cover : YesAttachments : Cover.jpg
    VideoID : 1Format : AVCFormat/Info : Advanced Video CodecFormat profile : High@L4.1Format settings, CABAC : YesFormat settings, ReFrames : 4 framesCodec ID : V_MPEG4/ISO/AVCDuration : 1h 35mnBit rate mode : VariableBit rate : 27.9 MbpsMaximum bit rate : 38.0 MbpsWidth : 1 920 pixelsHeight : 1 080 pixelsDisplay aspect ratio : 16:9Frame rate mode : ConstantFrame rate : 23.976 (24000/1001) fpsColor space : YUVChroma subsampling : 4:2:0Bit depth : 8 bitsScan type : ProgressiveBits/(Pixel*Frame) : 0.561Stream size : 18.7 GiB (92%)Title : Night Game 1989 1080p Blu-ray AVC DTS-HD MA 2 0-BaggerInc@BluRGLanguage : EnglishDefault : YesForced : No
    Audio #1ID : 2Format : AC-3Format/Info : Audio Coding 3Mode extension : CM (complete main)Format settings, Endianness : BigCodec ID : A_AC3Duration : 1h 35mnBit rate mode : ConstantBit rate : 192 KbpsChannel(s) : 2 channelsChannel positions : Front: L RSampling rate : 48.0 KHzFrame rate : 31.250 fps (1536 spf)Compression mode : LossyStream size : 132 MiB (1%)Title : DVO [НТВ+]Language : RussianDefault : YesForced : No
    Audio #2ID : 3Format : DTSFormat/Info : Digital Theater SystemsFormat profile : MA / CoreMode : 16Format settings, Endianness : BigCodec ID : A_DTSDuration : 1h 35mnBit rate mode : Variable / ConstantBit rate : 2 048 Kbps / 1 509 KbpsChannel(s) : 2 channelsChannel positions : Front: L RSampling rate : 48.0 KHzFrame rate : 93.750 fps (512 spf)Bit depth : 24 bitsCompression mode : Lossless / LossyStream size : 1.39 GiB (7%)Language : EnglishDefault : NoForced : No
    Скриншоты

    Зеркало


    Цитата:
    Цитата:

    • Релиз
    • Русский звук с этой раздачи.
    • На блюре не было субтитров и глав.
    Скачать .torrent

    Скачать торрент-файл бесплатно и на максимальной скорости!

    Как скачивать? · Что такое торрент? · Рейтинг и ограничения

    !ВНИМАНИЕ!
    Сайт не распространяет и не хранит электронные версии произведений, а занимается лишь лишь предоставлением доступа к создаваемому пользователями каталогу ссылок на торрент-файлы, которые содержат только списки хеш-сумм, убедительная просьба с жалобами обращаться напрямую к пользователю. Файлы для обмена на трекере предоставлены пользователями сайта, и администрация не несёт ответственности за их содержание. Просьба не заливать файлы, защищенные авторскими правами, а также файлы нелегального содержания!


    _________________
    [Профиль] [ЛС]
    Показать сообщения:    
    Ответить на тему

    Текущее время: Сегодня, в 21:59

    Часовой пояс: GMT + 2



    Вы не можете начинать темы
    Вы не можете отвечать на сообщения
    Вы не можете редактировать свои сообщения
    Вы не можете удалять свои сообщения
    Вы не можете голосовать в опросах
    Вы не можете прикреплять файлы к сообщениям
    Вы не можете скачивать файлы