BitTorrentTracker PerecTracker.org
BitTorrentTracker PerecTracker.org
    
Регистрация  ·  Вход
 
 · 
Забыли пароль?

  • Что могло быть хуже? / What\'s the Worst That Could Happen? (Сэм Уайзман / Sam Weisman) [2001, США, комедия, криминал, BDRip 720p] Dub + MVO + 2x DVO + AVO + Ukr + Sub (Rus, Eng) + Original Eng

    Ответить на тему
     
    Автор Сообщение

    Light

    Создавать темы 18-Апр-2016 17:42

           

    [Цитировать]

    Что могло быть хуже? / What's the Worst That Could Happen?-Страна: США
    Жанр: комедия, криминал
    Год выпуска: 2001
    Продолжительность: 01:38:28
    Перевод 1: Профессиональный (дублированный) Гемини Фильм
    Перевод 2: Профессиональный (многоголосый закадровый) R5
    Перевод 3: Профессиональный (двухголосый закадровый) НТВ+
    Перевод 4: Профессиональный (двухголосый закадровый) ТВ3
    Перевод 5: Авторский (одноголосый закадровый) А. Карповский
    Cубтитры: русские, английские
    Оригинальная аудиодорожка: английский-Режиссер: Сэм Уайзман / Sam Weisman
    В ролях: Мартин Лоуренс, Дэнни ДеВито, Джон Легуизамо, Гленн Хедли, Кармен Эджого, Берни Мак, Ларри Миллер, Нора Данн, Ричард Шифф, Уильям Фихтнер-Описание: И Кевина и Макса кормит воровство. Кевин — профессиональный вор, обожающий дорогие вещи, а миллиардер Макс Фербэнкс — беспринципный бизнесмен, не привыкший себе ни в чем отказывать. Кевин намеревается обчистить прибрежную виллу Макса, рассчитывая на отсутствие хозяина, но застает Макса в ванне с роскошной красоткой.
    Подоспевшая полиция арестовывает незадачливого грабителя, но Максу этого мало. Он снимает с руки закованного в наручники Кевина кольцо, уверяя полицейских, что это его собственность. Вор обкрадывает вора.
    На самом деле кольцо было подарено Кевину его подружкой, и он готов на все, чтобы его вернуть. Между двумя мошенниками развязывается настоящая война, в ходе которой возникают ситуации гораздо хуже и смешнее, чем они могли себе представить…- -Качество видео: BDRip 720p (исх. BDRemux 1080p)
    Формат видео: MKV
    Видео: x.264, 1280x694, 6081 kbps, 23.976 fps,
    Аудио 1: AC3, 192 kbps, 2.0 channels, 48000 Hz - DUB Гемини Фильм
    Аудио 2: DTS, 1509 kbps, 5.1 channels, 48000 Hz - MVO R5
    Аудио 3: AC3, 192 kbps, 2.0 channels, 48000 Hz - DVO НТВ+
    Аудио 4: AC3, 192 kbps, 2.0 channels, 48000 Hz - DVO ТВ3
    Аудио 5: DTS, 1509 kbps, 5.1 channels, 48000 Hz - AVO А. Карповский
    Аудио 6: AC3, 192 kbps, 2.0 channels, 48000 Hz - MVO Так Треба Продакшн - украинский
    Аудио 7: DTS, 1509 kbps, 5.1 channels, 48000 Hz - ENG
    Формат субтитров: softsub (SRT) - русские, английские-

    Скриншоты


    Резервные скриншоты



    -

    MediaInfo

    Format : Matroska
    Format version : Version 2
    File size : 7.91 GiB
    Duration : 1h 38mn
    Overall bit rate : 11.5 Mbps
    Movie name : Что могло быть хуже? / What's the Worst That Could Happen? (2001) BDRip 720p [RG Torrents.ru]
    Encoded date : UTC 2016-04-15 19:42:52
    Writing application : mkvmerge v7.7.0 ('Six Voices') 32bit built on Feb 28 2015 23:23:00
    Writing library : libebml v1.3.1 + libmatroska v1.4.2
    Cover : Yes
    Attachments : cover.jpg
    Video
    ID : 1
    Format : AVC
    Format/Info : Advanced Video Codec
    Format profile : High@L4.1
    Format settings, CABAC : Yes
    Format settings, ReFrames : 9 frames
    Codec ID : V_MPEG4/ISO/AVC
    Duration : 1h 38mn
    Bit rate : 5 979 Kbps
    Width : 1 280 pixels
    Height : 694 pixels
    Display aspect ratio : 1.85:1
    Frame rate mode : Constant
    Frame rate : 23.976 (24000/1001) fps
    Color space : YUV
    Chroma subsampling : 4:2:0
    Bit depth : 8 bits
    Scan type : Progressive
    Bits/(Pixel*Frame) : 0.281
    Stream size : 4.11 GiB (52%)
    Title : RG Torrents.ru
    Writing library : x264 core 148 r2665 a01e339
    Encoding settings : cabac=1 / ref=9 / deblock=1:-3:-3 / analyse=0x3:0x133 / me=umh / subme=10 / psy=1 / psy_rd=1.00:0.00 / mixed_ref=1 / me_range=32 / chroma_me=1 / trellis=2 / 8x8dct=1 / cqm=0 / deadzone=21,11 / fast_pskip=0 / chroma_qp_offset=-2 / threads=6 / lookahead_threads=1 / sliced_threads=0 / nr=0 / decimate=1 / interlaced=0 / bluray_compat=0 / constrained_intra=0 / bframes=9 / b_pyramid=2 / b_adapt=2 / b_bias=0 / direct=1 / weightb=1 / open_gop=0 / weightp=2 / keyint=240 / keyint_min=23 / scenecut=40 / intra_refresh=0 / rc_lookahead=60 / rc=crf / mbtree=0 / crf=17.0 / qcomp=0.60 / qpmin=0 / qpmax=69 / qpstep=4 / vbv_maxrate=50000 / vbv_bufsize=62500 / crf_max=0.0 / nal_hrd=none / filler=0 / ip_ratio=1.40 / pb_ratio=1.30 / aq=2:0.80
    Language : English
    Default : Yes
    Forced : No
    Audio #1
    ID : 2
    Format : AC-3
    Format/Info : Audio Coding 3
    Mode extension : CM (complete main)
    Format settings, Endianness : Big
    Codec ID : A_AC3
    Duration : 1h 38mn
    Bit rate mode : Constant
    Bit rate : 192 Kbps
    Channel(s) : 2 channels
    Channel positions : Front: L R
    Sampling rate : 48.0 KHz
    Frame rate : 31.250 fps (1536 spf)
    Compression mode : Lossy
    Stream size : 135 MiB (2%)
    Title : DUB
    Language : Russian
    Default : Yes
    Forced : No
    Audio #2
    ID : 3
    Format : DTS
    Format/Info : Digital Theater Systems
    Mode : 16
    Format settings, Endianness : Big
    Codec ID : A_DTS
    Duration : 1h 38mn
    Bit rate mode : Constant
    Bit rate : 1 509 Kbps
    Channel(s) : 6 channels
    Channel positions : Front: L C R, Side: L R, LFE
    Sampling rate : 48.0 KHz
    Frame rate : 93.750 fps (512 spf)
    Bit depth : 24 bits
    Compression mode : Lossy
    Stream size : 1.04 GiB (13%)
    Title : MVO
    Language : Russian
    Default : No
    Forced : No
    Audio #3
    ID : 4
    Format : AC-3
    Format/Info : Audio Coding 3
    Mode extension : CM (complete main)
    Format settings, Endianness : Big
    Codec ID : A_AC3
    Duration : 1h 38mn
    Bit rate mode : Constant
    Bit rate : 192 Kbps
    Channel(s) : 2 channels
    Channel positions : Front: L R
    Sampling rate : 48.0 KHz
    Frame rate : 31.250 fps (1536 spf)
    Compression mode : Lossy
    Stream size : 135 MiB (2%)
    Title : DVO - НТВ+
    Language : Russian
    Default : No
    Forced : No
    Audio #4
    ID : 5
    Format : AC-3
    Format/Info : Audio Coding 3
    Mode extension : CM (complete main)
    Format settings, Endianness : Big
    Codec ID : A_AC3
    Duration : 1h 38mn
    Bit rate mode : Constant
    Bit rate : 192 Kbps
    Channel(s) : 2 channels
    Channel positions : Front: L R
    Sampling rate : 48.0 KHz
    Frame rate : 31.250 fps (1536 spf)
    Compression mode : Lossy
    Stream size : 135 MiB (2%)
    Title : DVO - ТВ3
    Language : Russian
    Default : No
    Forced : No
    Audio #5
    ID : 6
    Format : DTS
    Format/Info : Digital Theater Systems
    Mode : 16
    Format settings, Endianness : Big
    Codec ID : A_DTS
    Duration : 1h 38mn
    Bit rate mode : Constant
    Bit rate : 1 509 Kbps
    Channel(s) : 6 channels
    Channel positions : Front: L C R, Side: L R, LFE
    Sampling rate : 48.0 KHz
    Frame rate : 93.750 fps (512 spf)
    Bit depth : 24 bits
    Compression mode : Lossy
    Stream size : 1.04 GiB (13%)
    Title : AVO - Karpovsky
    Language : Russian
    Default : No
    Forced : No
    Audio #6
    ID : 7
    Format : AC-3
    Format/Info : Audio Coding 3
    Mode extension : CM (complete main)
    Format settings, Endianness : Big
    Codec ID : A_AC3
    Duration : 1h 38mn
    Bit rate mode : Constant
    Bit rate : 192 Kbps
    Channel(s) : 2 channels
    Channel positions : Front: L R
    Sampling rate : 48.0 KHz
    Frame rate : 31.250 fps (1536 spf)
    Compression mode : Lossy
    Stream size : 135 MiB (2%)
    Title : MVO
    Language : Ukrainian
    Default : No
    Forced : No
    Audio #7
    ID : 8
    Format : DTS
    Format/Info : Digital Theater Systems
    Mode : 16
    Format settings, Endianness : Big
    Codec ID : A_DTS
    Duration : 1h 38mn
    Bit rate mode : Constant
    Bit rate : 1 509 Kbps
    Channel(s) : 6 channels
    Channel positions : Front: L C R, Side: L R, LFE
    Sampling rate : 48.0 KHz
    Frame rate : 93.750 fps (512 spf)
    Bit depth : 24 bits
    Compression mode : Lossy
    Stream size : 1.04 GiB (13%)
    Language : English
    Default : No
    Forced : No
    Text #1
    ID : 9
    Format : UTF-8
    Codec ID : S_TEXT/UTF8
    Codec ID/Info : UTF-8 Plain Text
    Language : Russian
    Default : No
    Forced : No
    Text #2
    ID : 10
    Format : UTF-8
    Codec ID : S_TEXT/UTF8
    Codec ID/Info : UTF-8 Plain Text
    Language : English
    Default : No
    Forced : No
    Menu
    00:00:00.000 : en:Chapter 01
    00:00:10.927 : en:Chapter 02
    00:11:27.603 : en:Chapter 03
    00:22:00.318 : en:Chapter 04
    00:33:37.765 : en:Chapter 05
    00:45:49.329 : en:Chapter 06
    00:58:21.247 : en:Chapter 07
    01:11:24.154 : en:Chapter 08
    01:23:58.116 : en:Chapter 09
    01:38:38.912 : en:

    -
    Доп.инфо
    Цитата:
    Цитата:

    Дорожки №2,5 были получены путем наложения голосов на центральный канал оригинала
    За оцифровку стерео дубляжа спасибо IVH
    Скачать .torrent

    Скачать торрент-файл бесплатно и на максимальной скорости!

    Как скачивать? · Что такое торрент? · Рейтинг и ограничения

    !ВНИМАНИЕ!
    Сайт не распространяет и не хранит электронные версии произведений, а занимается лишь лишь предоставлением доступа к создаваемому пользователями каталогу ссылок на торрент-файлы, которые содержат только списки хеш-сумм, убедительная просьба с жалобами обращаться напрямую к пользователю. Файлы для обмена на трекере предоставлены пользователями сайта, и администрация не несёт ответственности за их содержание. Просьба не заливать файлы, защищенные авторскими правами, а также файлы нелегального содержания!


    _________________
    [Профиль] [ЛС]
    Показать сообщения:    
    Ответить на тему

    Текущее время: Сегодня, в 22:08

    Часовой пояс: GMT + 2



    Вы не можете начинать темы
    Вы не можете отвечать на сообщения
    Вы не можете редактировать свои сообщения
    Вы не можете удалять свои сообщения
    Вы не можете голосовать в опросах
    Вы не можете прикреплять файлы к сообщениям
    Вы не можете скачивать файлы