BitTorrentTracker PerecTracker.org
BitTorrentTracker PerecTracker.org
    
Регистрация  ·  Вход
 
 · 
Забыли пароль?

  • Век Адалин / The Age of Adaline (Ли Толанд Кригер / Lee Toland Krieger) [2015, США, Канада, драма, мелодрама, фэнтези, BDRemux 1080p] Dub (iTunes) + Sub Rus, Eng + Original Eng

    Ответить на тему
     
    Автор Сообщение

    Light

    Создавать темы 18-Апр-2016 17:42

           

    [Цитировать]

    -Век Адалин / The Age of Adaline-Страна: США, Канада
    Жанр: драма, мелодрама, фэнтези
    Год выпуска: 2015
    Продолжительность: 01:52:44-Перевод: Профессиональный (дублированный) iTunes
    Cубтитры: русские (полные + форсированные на итальянскую и португальскую речь), английские (х3)
    Оригинальная аудиодорожка: английский-Режиссер: Ли Толанд Кригер / Lee Toland Krieger
    В ролях: Блейк Лайвли, Михил Хаушман, Кэти Бейкер, Харрисон Форд, Эллен Бёрстин, Аманда Крю, Линда Бойд, Хью Росс, Ричард Хэрмон, Фульвио Чечере-Описание: По сюжету главная героиня родилась вместе с XX веком и живет на свете уже сто лет, но при этом не стареет. Несмотря на свою долгую жизнь, Адалин так и не смогла найти любимого человека. Однако наконец-то она встречает мужчину, ради которого сможет снова стать смертной и состариться вместе с ним.- -Сэмпл-Тип релиза: BDRemux 1080p
    Контейнер: MKV
    Видео: MPEG-4 AVC Video / 36628 kbps / 1080p / 23.976 fps / 16:9 / High Profile 4.1
    Аудио: Russian Dolby Digital Audio 384 kbps 5.1 / 48 kHz | Дубляж
    Аудио 2: English DTS-HD Master Audio 7.1 / 48 kHz / 3637 kbps / 24-bit (DTS Core: 5.1 / 48 kHz / 1509 kbps / 24-bit)
    Формат субтитров: softsub (SRT)

    MI

    GeneralUnique ID : 242069429411156397677290816577170893065 (0xB61CE05362CA3E0B825E300C96A4E909)Complete name : S:\На хранении\Век Адалин (2015. The Age of Adaline).mkvFormat : MatroskaFormat version : Version 4 / Version 2File size : 31.4 GiBDuration : 1h 52mnOverall bit rate mode : VariableOverall bit rate : 39.9 MbpsMovie name : Release for RuTrackerEncoded date : UTC 2016-04-16 12:29:41Writing application : mkvmerge v9.0.1 ('Obstacles') 64bitWriting library : libebml v1.3.3 + libmatroska v1.4.4Cover : YesAttachments : cover.png
    VideoID : 1Format : AVCFormat/Info : Advanced Video CodecFormat profile : High@L4.1Format settings, CABAC : YesFormat settings, ReFrames : 4 framesCodec ID : V_MPEG4/ISO/AVCDuration : 1h 52mnBit rate mode : VariableBit rate : 35.9 MbpsMaximum bit rate : 38.0 MbpsWidth : 1 920 pixelsHeight : 1 080 pixelsDisplay aspect ratio : 16:9Frame rate mode : ConstantFrame rate : 23.976 (24000/1001) fpsColor space : YUVChroma subsampling : 4:2:0Bit depth : 8 bitsScan type : ProgressiveBits/(Pixel*Frame) : 0.722Stream size : 28.3 GiB (90%)Title : The Age of Adaline 2015 1080p JPN Blu-ray AVC DTS-HD MA 5.1-MoonFansLanguage : EnglishDefault : YesForced : No
    Audio #1ID : 2Format : AC-3Format/Info : Audio Coding 3Mode extension : CM (complete main)Format settings, Endianness : BigCodec ID : A_AC3Duration : 1h 52mnBit rate mode : ConstantBit rate : 384 KbpsChannel(s) : 6 channelsChannel positions : Front: L C R, Side: L R, LFESampling rate : 48.0 KHzFrame rate : 31.250 fps (1536 spf)Compression mode : LossyStream size : 309 MiB (1%)Title : ДубляжLanguage : RussianDefault : YesForced : No
    Audio #2ID : 3Format : DTSFormat/Info : Digital Theater SystemsFormat profile : MA / CoreMode : 16Format settings, Endianness : BigCodec ID : A_DTSDuration : 1h 52mnBit rate mode : Variable / ConstantBit rate : 3 637 Kbps / 1 509 KbpsChannel(s) : 8 channels / 6 channelsChannel positions : Front: L C R, Side: L R, Back: L R, LFE / Front: L C R, Side: L R, LFESampling rate : 48.0 KHzFrame rate : 93.750 fps (512 spf)Bit depth : 24 bitsCompression mode : Lossless / LossyStream size : 2.86 GiB (9%)Language : EnglishDefault : NoForced : No
    Text #1ID : 4Format : UTF-8Codec ID : S_TEXT/UTF8Codec ID/Info : UTF-8 Plain TextDuration : 4mn 31sBit rate : 9 bpsCount of elements : 5Stream size : 313 Bytes (0%)Title : forcedLanguage : RussianDefault : YesForced : No
    Text #2ID : 5Format : UTF-8Codec ID : S_TEXT/UTF8Codec ID/Info : UTF-8 Plain TextDuration : 1h 46mnBit rate : 84 bpsCount of elements : 1206Stream size : 66.0 KiB (0%)Language : RussianDefault : NoForced : No
    Text #3ID : 6Format : UTF-8Codec ID : S_TEXT/UTF8Codec ID/Info : UTF-8 Plain TextDuration : 1h 44mnBit rate : 55 bpsCount of elements : 1104Stream size : 42.2 KiB (0%)Language : EnglishDefault : NoForced : No
    Text #4ID : 7Format : UTF-8Codec ID : S_TEXT/UTF8Codec ID/Info : UTF-8 Plain TextDuration : 1h 44mnBit rate : 60 bpsCount of elements : 1449Stream size : 46.3 KiB (0%)Title : SDHLanguage : EnglishDefault : NoForced : No
    Text #5ID : 8Format : UTF-8Codec ID : S_TEXT/UTF8Codec ID/Info : UTF-8 Plain TextDuration : 1h 44mnBit rate : 70 bpsCount of elements : 1447Stream size : 54.0 KiB (0%)Title : SDH-ColoredLanguage : EnglishDefault : NoForced : No
    Menu00:00:00.000 : en:00:00:00.00000:16:53.137 : en:00:16:53.13700:28:10.898 : en:00:28:10.89800:46:45.594 : en:00:46:45.59400:59:51.922 : en:00:59:51.92201:13:44.295 : en:01:13:44.29501:31:29.109 : en:01:31:29.10901:43:22.947 : en:01:43:22.947
    Скриншоты

    Зеркало


    Цитата:
    Цитата:

    • Видеоряд с японского трансфера. Сравнения с другими: JPN (36628 kbps) vs. US (24994 kbps) vs. ESP (29999 kbps) vs. FRE (26996 hbps)
    • Оригинальный звук с американского трансфера, т.к. на японском был 5.1. (TrueHD >> WAVS >> DTS-HD)
    • Сохранены оригинальные чаптеры как на Blu-ray.
    Скачать .torrent

    Скачать торрент-файл бесплатно и на максимальной скорости!

    Как скачивать? · Что такое торрент? · Рейтинг и ограничения

    !ВНИМАНИЕ!
    Сайт не распространяет и не хранит электронные версии произведений, а занимается лишь лишь предоставлением доступа к создаваемому пользователями каталогу ссылок на торрент-файлы, которые содержат только списки хеш-сумм, убедительная просьба с жалобами обращаться напрямую к пользователю. Файлы для обмена на трекере предоставлены пользователями сайта, и администрация не несёт ответственности за их содержание. Просьба не заливать файлы, защищенные авторскими правами, а также файлы нелегального содержания!


    _________________
    [Профиль] [ЛС]
    Показать сообщения:    
    Ответить на тему

    Текущее время: Сегодня, в 06:05

    Часовой пояс: GMT + 2



    Вы не можете начинать темы
    Вы не можете отвечать на сообщения
    Вы не можете редактировать свои сообщения
    Вы не можете удалять свои сообщения
    Вы не можете голосовать в опросах
    Вы не можете прикреплять файлы к сообщениям
    Вы не можете скачивать файлы