BitTorrentTracker PerecTracker.org
BitTorrentTracker PerecTracker.org
    
Регистрация  ·  Вход
 
 · 
Забыли пароль?

  • Хулиганы / Green Street Hooligans (Лекси Александр / Lexi Alexander) [2005, США, Великобритания, драма, криминал, спорт, BDRip 720p] [Open Matte] MVO + 2x DVO + VO + Sub Rus (x3), Eng (x2) + Original Eng

    Ответить на тему
     
    Автор Сообщение

    Light

    Создавать темы 18-Апр-2016 17:42

           

    [Цитировать]

    Хулиганы / Green Street Hooligans
    Страна: США, Великобритания
    Студия: Baker Street, OddLot Entertainment, Yank Film Finance
    Жанр: драма, криминал, спорт
    Год выпуска: 2005
    Продолжительность: 01:48:53
    Перевод 1: Профессиональный (двухголосый закадровый) Tycoon Studio
    Перевод 2: Профессиональный (многоголосый закадровый) R5
    Перевод 3: Любительский (двухголосый закадровый) ненормативная лексика
    Перевод 4: Одноголосый закадровый Михаил Яроцкий (ненормативная лексика)
    Cубтитры: русские (Tycoon Studio), русские (R5), русские (с ненормативной лексикой), английские, английские (SDH)
    Оригинальная аудиодорожка: английский
    Режиссер: Лекси Александр / Lexi Alexander
    В ролях: Элайджа Вуд, Чарли Ханнэм, Клэр Форлани, Марк Уоррен, Лео Грегори, Джофф Белл, Киран Бью, Генри Гудман, Кристофер Хехир, Теренс Джей
    Описание: Студент факультета журналистики Мэтт Бакнер отчислен из Гарварда за преступление, которого он не совершал. Его многообещающая карьера пошла коту под хвост, его будущее выглядит суровым, и он в поисках убежища бежит в Лондон к своей замужней сестре Шэннон. Её муж Стив знакомит Мэтта со своим младшим братом Питом. Сдружившись с Питом, Мэтт открывает для себя мир футбольного фанатизма, а также узнаёт тайны и интриги футбольной фирмы. Пит Данхам и его верные друзья создали Элиту Зелёной улицы, группу ярых фанатов клуба Вэст-Хэм Юнайтед, одну из самых жестоких лондонских футбольных фирм... Здесь он находит новых друзей, новые неприятности и оказывается в компании безумных футбольных фанатов, готовых на алтарь своей страсти бросить любую жертву...- by spartanec163-Сэмпл: http://sendfile.su/1225201
    Тип релиза: BDRip 720p [CHD]
    Контейнер: MKV
    Видео: h.264, 1280x720, 23.976 fps, 5930 kbps
    Аудио #1: Russian: AC3 5.1, 48 kHz, 448 kbps avg |Двухголосый закадровый, Tycoon Studio|
    Аудио #2: Russian: AC3 2.0, 48 kHz, 192 kbps avg |Многоголосый закадровый, R5|
    Аудио #3: Russian: AC3 5.1, 48 kHz, 640 kbps avg |Двухголосый закадровый (ненормативная лексика)|
    Аудио #4: English: AC3 5.1, 48 kHz, 640 kbps avg |Оригинал|
    Отдельным файлом:
    Аудио #5: Russian: AC3 5.1, 48 kHz, 448 kbps avg |Одноголосый закадровый, Михаил Яроцкий (ненормативная лексика)|
    Формат субтитров: softsub (SRT)

    MediaInfo

    \Green.Street.Hooligans.2007.Open.Matte.720p.BDRip.3xRus.Eng.HDCLUB.mkv
    Format : Matroska
    Format version : Version 4 / Version 2
    File size : 5.96 GiB
    Duration : 1h 48mn
    Overall bit rate : 7 842 Kbps
    Movie name : Release by spartanec163
    Encoded date : UTC 2013-10-18 02:43:46
    Writing application : mkvmerge v6.3.0 ('You can't stop me!') built on Jun 28 2013 20:09:41
    Writing library : libebml v1.3.0 + libmatroska v1.4.0
    Video
    ID : 1
    Format : AVC
    Format/Info : Advanced Video Codec
    Format profile : High@L4.1
    Format settings, CABAC : Yes
    Format settings, ReFrames : 9 frames
    Codec ID : V_MPEG4/ISO/AVC
    Duration : 1h 48mn
    Bit rate : 5 930 Kbps
    Width : 1 280 pixels
    Height : 720 pixels
    Display aspect ratio : 16:9
    Frame rate mode : Constant
    Frame rate : 23.976 fps
    Color space : YUV
    Chroma subsampling : 4:2:0
    Bit depth : 8 bits
    Scan type : Progressive
    Bits/(Pixel*Frame) : 0.268
    Stream size : 4.39 GiB (74%)
    Title : Rip by CHD
    Writing library : x264 core 120 r2164 da19765
    Encoding settings : cabac=1 / ref=9 / deblock=1:-3:-3 / analyse=0x3:0x113 / me=umh / subme=11 / psy=1 / psy_rd=1.05:0.10 / mixed_ref=1 / me_range=48 / chroma_me=1 / trellis=2 / 8x8dct=1 / cqm=0 / deadzone=21,11 / fast_pskip=0 / chroma_qp_offset=-2 / threads=12 / sliced_threads=0 / nr=0 / decimate=1 / interlaced=0 / bluray_compat=0 / constrained_intra=0 / bframes=6 / b_pyramid=2 / b_adapt=2 / b_bias=0 / direct=3 / weightb=1 / open_gop=0 / weightp=2 / keyint=250 / keyint_min=23 / scenecut=40 / intra_refresh=0 / rc_lookahead=60 / rc=2pass / mbtree=0 / bitrate=5930 / ratetol=1.0 / qcomp=0.70 / qpmin=0 / qpmax=69 / qpstep=4 / cplxblur=20.0 / qblur=0.5 / vbv_maxrate=40000 / vbv_bufsize=30000 / nal_hrd=none / ip_ratio=1.40 / pb_ratio=1.30 / aq=2:0.70
    Language : English
    Default : Yes
    Forced : No
    Audio #1
    ID : 2
    Format : AC-3
    Format/Info : Audio Coding 3
    Mode extension : CM (complete main)
    Format settings, Endianness : Big
    Codec ID : A_AC3
    Duration : 1h 48mn
    Bit rate mode : Constant
    Bit rate : 448 Kbps
    Channel(s) : 6 channels
    Channel positions : Front: L C R, Side: L R, LFE
    Sampling rate : 48.0 KHz
    Frame rate : 31.250 fps (1536 spf)
    Compression mode : Lossy
    Stream size : 349 MiB (6%)
    Title : AC3 5.1 448Kbps (Профессиональный, двухголосый - Tycoon Studio)
    Language : Russian
    Default : Yes
    Forced : No
    Audio #2
    ID : 3
    Format : AC-3
    Format/Info : Audio Coding 3
    Mode extension : CM (complete main)
    Format settings, Endianness : Big
    Codec ID : A_AC3
    Duration : 1h 48mn
    Bit rate mode : Constant
    Bit rate : 192 Kbps
    Channel(s) : 2 channels
    Channel positions : Front: L R
    Sampling rate : 48.0 KHz
    Frame rate : 31.250 fps (1536 spf)
    Compression mode : Lossy
    Stream size : 150 MiB (2%)
    Title : AC3 2.0 192Kbps (Профессиональный, многоголосый - R5)
    Language : Russian
    Default : No
    Forced : No
    Audio #3
    ID : 4
    Format : AC-3
    Format/Info : Audio Coding 3
    Mode extension : CM (complete main)
    Format settings, Endianness : Big
    Codec ID : A_AC3
    Duration : 1h 48mn
    Bit rate mode : Constant
    Bit rate : 640 Kbps
    Channel(s) : 6 channels
    Channel positions : Front: L C R, Side: L R, LFE
    Sampling rate : 48.0 KHz
    Frame rate : 31.250 fps (1536 spf)
    Compression mode : Lossy
    Stream size : 498 MiB (8%)
    Title : AC3 5.1 640Kbps (Любительский, двухголосый - присутствует ненормативная лексика)
    Language : Russian
    Default : No
    Forced : No
    Audio #4
    ID : 5
    Format : AC-3
    Format/Info : Audio Coding 3
    Mode extension : CM (complete main)
    Format settings, Endianness : Big
    Codec ID : A_AC3
    Duration : 1h 48mn
    Bit rate mode : Constant
    Bit rate : 640 Kbps
    Channel(s) : 6 channels
    Channel positions : Front: L C R, Side: L R, LFE
    Sampling rate : 48.0 KHz
    Frame rate : 31.250 fps (1536 spf)
    Compression mode : Lossy
    Stream size : 498 MiB (8%)
    Title : AC3 5.1 640Kbps (Оригинал)
    Language : English
    Default : No
    Forced : No
    Text #1
    ID : 6
    Format : UTF-8
    Codec ID : S_TEXT/UTF8
    Codec ID/Info : UTF-8 Plain Text
    Title : Tycoon Studio
    Language : Russian
    Default : No
    Forced : No
    Text #2
    ID : 7
    Format : UTF-8
    Codec ID : S_TEXT/UTF8
    Codec ID/Info : UTF-8 Plain Text
    Title : R5
    Language : Russian
    Default : No
    Forced : No
    Text #3
    ID : 8
    Format : UTF-8
    Codec ID : S_TEXT/UTF8
    Codec ID/Info : UTF-8 Plain Text
    Title : С ненормативной лексикой
    Language : Russian
    Default : No
    Forced : No
    Text #4
    ID : 9
    Format : UTF-8
    Codec ID : S_TEXT/UTF8
    Codec ID/Info : UTF-8 Plain Text
    Language : English
    Default : No
    Forced : No
    Text #5
    ID : 10
    Format : UTF-8
    Codec ID : S_TEXT/UTF8
    Codec ID/Info : UTF-8 Plain Text
    Title : SDH
    Language : English
    Default : No
    Forced : No
    Menu
    00:00:00.000 : en:Underground Clash
    00:06:19.169 : en:Harvard to London (Credits)
    00:14:31.787 : en:Two Younger Brothers
    00:24:34.181 : en:You might Learn Something
    00:33:27.588 : en:Blowing Bubbles
    00:40:56.620 : en:Working the Crowd
    00:49:09.362 : en:Stand your Ground
    00:53:18.737 : en:Firm History
    00:59:54.841 : en:Messing things Up
    01:08:29.772 : en:How Americans Bruise
    01:14:58.827 : en:Bovver couses a Bother
    01:22:45.877 : en:Train Ride to a Trap
    01:30:20.164 : en:Sneeak Attack
    01:38:19.100 : en:Guest Appearance
    01:42:38.152 : en:The Draw
    01:43:25.240 : en:Undercouver Journer?

    Скриншоты

    Скачать .torrent

    Скачать торрент-файл бесплатно и на максимальной скорости!

    Как скачивать? · Что такое торрент? · Рейтинг и ограничения

    !ВНИМАНИЕ!
    Сайт не распространяет и не хранит электронные версии произведений, а занимается лишь лишь предоставлением доступа к создаваемому пользователями каталогу ссылок на торрент-файлы, которые содержат только списки хеш-сумм, убедительная просьба с жалобами обращаться напрямую к пользователю. Файлы для обмена на трекере предоставлены пользователями сайта, и администрация не несёт ответственности за их содержание. Просьба не заливать файлы, защищенные авторскими правами, а также файлы нелегального содержания!


    _________________
    [Профиль] [ЛС]
    Показать сообщения:    
    Ответить на тему

    Текущее время: Сегодня, в 18:18

    Часовой пояс: GMT + 2



    Вы не можете начинать темы
    Вы не можете отвечать на сообщения
    Вы не можете редактировать свои сообщения
    Вы не можете удалять свои сообщения
    Вы не можете голосовать в опросах
    Вы не можете прикреплять файлы к сообщениям
    Вы не можете скачивать файлы