BitTorrentTracker PerecTracker.org
BitTorrentTracker PerecTracker.org
    
Регистрация  ·  Вход
 
 · 
Забыли пароль?

  • Перекрестки / Crossroads (Тамра Дэвис / Tamra Davis) [2002, США, комедия, мелодрама, драма, приключения, музыка, WEB-DL 720p] Dub + AVO (Дольский) + Original (eng) + sub (rus, eng)

    Ответить на тему
     
    Автор Сообщение

    Light

    Создавать темы 18-Апр-2016 17:42

           

    [Цитировать]

    Перекрестки / CrossroadsГод выпуска: 2002
    Страна: США | |
    Жанр: драма, мелодрама, комедия, музыка
    Продолжительность: 01:23:30
    Перевод#1: Профессиональный (полное дублирование)
    Перевод#2: Авторский (одноголосый закадровый) - Андрей Дольский

    Оригинальная звуковая дорожка [English]
    Субтитры: RUS | ENG | *srt
    Режиссер: Тамра Дэвис / Tamra Davis
    Сценарий: Шонда Раймс / Shonda Rhimes
    Продюсер: Энн Карли / Ann Carli, Клив Калдер / Clive Calder, Дэвид Гэйл / David Gale, Виктор Хо / Victor Ho, Роб Ли / Rob Lee
    Оператор: Эрик Алан Эдвардс / Eric Alan Edwards
    Композитор: Тревор Джонс / Trevor Jones
    В ролях: Бритни Спирс (Lucy Wagner), Зои Салдана (Kit), Дэн Эйкройд (Pete Wagner), Энсон Маунт (Ben), Тэрин Мэннинг (Mimi), Ким Кэтролл (Caroline), Джастин Лонг (Henry), Беверли Джонсон (Kit's Mother), Бахни Турпин (Ms. Jenson), Кул Мо Ди (Bar Owner), Ричард Волл (Dylan), Кэтрин Бёхер (Dylan's Other Girl)
    Дублёры: Александра Фатхи (Lucy Wagner), Елена Шульман (Kit), Сергей Паршин (Pete Wagner), Валерий Соловьев (Ben), Владимир Маслаков (Henry), Александра Кожевникова (Kit's Mother), Максим Сергеев (Bar Owner), Иван Паршин (Dylan), Дмитрий Витов (High School Burnout), Александр Машанов (Kurt)-Бюджет: $12 000 000
    Маркетинг: $18 000 000
    Сборы в США: $37 191 304
    Сборы в мире: $61 141 030
    Мировая премьера: 11 февраля 2002-«Перекрёстки» — молодёжный фильм 2002 года, режиссёр Темра Девис. Главную роль играет поп-звезда Бритни Спирс. По словам Спирс название фильма «Перекрёстки» подразумевает переход к лучшим точкам жизни, для того, чтобы попытаться исполнить свои желания. По версии журнала Entertainment Weekly фильм «Перекрёстки» стал лучшим молодёжным фильмом в истории.

    Описание:
    Никаких особых примет у школьницы Люси нет. В будничной жизни провинциального городка ничего интересного ей не светит до тех пор, пока подружки не приглашают Люси на музыкальный конкурс в Лос-Анджелес, где, как известно, загораются звезды и осуществляются все мечты. Однако неожиданные обстоятельства меняют эти радужные надежды...-Рейтинг
    : 5.741 (8469)
    imdb.com: 3.30 (33 273)
    MPAA: PG-13 - Детям до 13 лет просмотр не желателен
    -
    • Синхронизацией дубляжа занимался JUSTKANT.
    • Авторский перевод любезно предоставил и синхронизировал ale_x2008.
    • Помогает с раздачей dalemake.
    Спасибы им огромные!-Качество: WEB-DL 720p
    Формат: MKV //SAMPLE//
    Видео: AVC, L3.1, 1280x718 (16:9), 23,976 fps, ~4067 Kbps, 0,18 bit/pixel
    Аудио#1: Russian, 48 kHz, AC3 Dolby Digital, 2/0 (L,R) ch, ~192 kbps | Dub |
    Аудио#2: Russian, 48 kHz, AC3 Dolby Digital, 2/0 (L,R) ch, ~192 kbps | AVO |
    Аудио#3: English, 48 kHz, AC3 Dolby Digital, 3/2 (L,C,R,l,r) + LFE ch, ~384 kbps | Original |
    Субтитры: Russian, English

    MediaInfo

    GeneralUnique ID : 225367187026583687339982137790911989439 (0xA98C2432A3723F06BFA058E11397C6BF)Complete name : H:\!HD\Perekrestki.2002.TRIPLE.x264.WEB-DL.720p.mkvFormat : MatroskaFormat version : Version 4 / Version 2File size : 3.16 GiBDuration : 1h 33mnOverall bit rate : 4 837 KbpsEncoded date : UTC 2016-04-08 19:36:04Writing application : mkvmerge v9.0.1 ('Obstacles') 64bitWriting library : libebml v1.3.3 + libmatroska v1.4.4DURATION : 01:30:15.207000000NUMBER_OF_FRAMES : 1039NUMBER_OF_BYTES : 34815_STATISTICS_WRITING_APP : mkvmerge v9.0.1 ('Obstacles') 64bit_STATISTICS_WRITING_DATE_UT : 2016-04-08 19:36:04_STATISTICS_TAGS : BPS DURATION NUMBER_OF_FRAMES NUMBER_OF_BYTES
    VideoID : 1Format : AVCFormat/Info : Advanced Video CodecFormat profile : High@L3.1Format settings, CABAC : NoFormat settings, ReFrames : 2 framesCodec ID : V_MPEG4/ISO/AVCDuration : 1h 33mnBit rate : 3 973 KbpsWidth : 1 280 pixelsHeight : 718 pixelsDisplay aspect ratio : 16:9Frame rate mode : ConstantFrame rate : 23.976 fpsColor space : YUVChroma subsampling : 4:2:0Bit depth : 8 bitsScan type : ProgressiveBits/(Pixel*Frame) : 0.180Stream size : 2.59 GiB (82%)Title : Перекрестки / Crossroads [2002] WEB-DL 720pLanguage : EnglishDefault : YesForced : YesColor primaries : BT.709Transfer characteristics : BT.709Matrix coefficients : BT.709Color range : Limited
    Audio #1ID : 2Format : AC-3Format/Info : Audio Coding 3Mode extension : CM (complete main)Format settings, Endianness : BigCodec ID : A_AC3Duration : 1h 33mnBit rate mode : ConstantBit rate : 192 KbpsChannel(s) : 2 channelsChannel positions : Front: L RSampling rate : 48.0 KHzBit depth : 16 bitsCompression mode : LossyStream size : 128 MiB (4%)Title : Dub [AC3 2.0@192 kbps]Language : RussianDefault : YesForced : No
    Audio #2ID : 3Format : AC-3Format/Info : Audio Coding 3Mode extension : CM (complete main)Format settings, Endianness : BigCodec ID : A_AC3Duration : 1h 33mnBit rate mode : ConstantBit rate : 192 KbpsChannel(s) : 2 channelsChannel positions : Front: L RSampling rate : 48.0 KHzBit depth : 16 bitsCompression mode : LossyStream size : 128 MiB (4%)Title : AVO - Дольский [AC3 2.0@192 kbps]Language : RussianDefault : NoForced : No
    Audio #3ID : 5Format : AC-3Format/Info : Audio Coding 3Mode extension : CM (complete main)Format settings, Endianness : BigCodec ID : A_AC3Duration : 1h 33mnBit rate mode : ConstantBit rate : 384 KbpsChannel(s) : 6 channelsChannel positions : Front: L C R, Side: L R, LFESampling rate : 48.0 KHzBit depth : 16 bitsCompression mode : LossyStream size : 257 MiB (8%)Title : Original [AC3 5.1@384 kbps]Language : EnglishDefault : NoForced : No
    Text #1ID : 4Format : UTF-8Codec ID : S_TEXT/UTF8Codec ID/Info : UTF-8 Plain TextLanguage : RussianDefault : NoForced : No
    Text #2ID : 6Format : UTF-8Codec ID : S_TEXT/UTF8Codec ID/Info : UTF-8 Plain TextLanguage : EnglishDefault : NoForced : No

    -

    Скриншоты


    -
    Знаете ли Вы, что...

    Золотая малина, 2003 год Победитель:
    Худшая женская роль (Бритни Спирс)
    Худшая песня — «I'm Not a Girl, Not Yet a Woman»
    -Бюджет: $12 000 000
    -

    • Героиня Бритни Спирс получила свою фамилию Вагнер в честь отвечавшей за кастинг актёров Ким Дэвис-Вагнер.
    • Фотографии в медальоне Люси это настоящие фотографии Бритни Спирс в юном возрасте.
    • Сыгравший роль отца Люси Дэн Эйкройд создал детальную историю своего персонажа и его службы на флоте. Больше того, один из его друзей выполнил ему флотскую татуировку на руке, которую можно заметить, когда он работает с машиной в гараже.
    • Когда подошло время первого поцелуя, партнёр Бритни перед этим съел дольку чеснока, и тем самым очень обескуражил Брит, но когда она поняла, что над ней просто пошутили, она долго смеялась.
    • Во время съёмок в Луизиане, в Кентвуде большая часть города вышла, чтобы хоть одним глазком увидеть Бритни Спирс.
    • Во время съёмок Бритни укусила оса и она чуть не задохнулась. Пришлось вызывать врача, который помог ей.
    • Машина Бена, в которой друзья отправляются в путешествие, это Buick Skylark с раздвижным верхом.
    • Песня, под которую девчонки танцуют в отеле в Новом Орлеане, это Crazy Love американского дуэта Boomkat.
    • На вечеринке в начале фильма играет рок-группа Bowling for Soup, которая имеет контракт с той же студией звукозаписи, что и Бритни Спирс, а также часто сопровождала её на концертах.
    • Энсон Маунт поначалу без особого восторга воспринял поступившее ему предложение сыграть роль Бена, но всё же дал своё согласие, во многом благодаря поддержке Роберта де Ниро, с которым он в тот период работал на съёмках триллера «Последнее дело Ламарки» (2002). Как оказалось, знаменитый актёр втайне был большим поклонником музыки Бритни Спирс, и в перерывах между съёмками они вместе репетировали сцены из «Перекрёстков». При этом Энсон Маунт читал свои реплики, а Роберт де Ниро – Бритни Спирс.
    • Для съёмок сцены в госпитале была позаимствована съёмочная площадка сериала «Клиника» (2001).

    -
    -
    Скачать .torrent

    Скачать торрент-файл бесплатно и на максимальной скорости!

    Как скачивать? · Что такое торрент? · Рейтинг и ограничения

    !ВНИМАНИЕ!
    Сайт не распространяет и не хранит электронные версии произведений, а занимается лишь лишь предоставлением доступа к создаваемому пользователями каталогу ссылок на торрент-файлы, которые содержат только списки хеш-сумм, убедительная просьба с жалобами обращаться напрямую к пользователю. Файлы для обмена на трекере предоставлены пользователями сайта, и администрация не несёт ответственности за их содержание. Просьба не заливать файлы, защищенные авторскими правами, а также файлы нелегального содержания!


    _________________
    [Профиль] [ЛС]
    Показать сообщения:    
    Ответить на тему

    Текущее время: Сегодня, в 18:38

    Часовой пояс: GMT + 2



    Вы не можете начинать темы
    Вы не можете отвечать на сообщения
    Вы не можете редактировать свои сообщения
    Вы не можете удалять свои сообщения
    Вы не можете голосовать в опросах
    Вы не можете прикреплять файлы к сообщениям
    Вы не можете скачивать файлы