BitTorrentTracker PerecTracker.org
BitTorrentTracker PerecTracker.org
    
Регистрация  ·  Вход
 
 · 
Забыли пароль?

  • Аква Тин Хангер Форс - Фильм для Кинотеатров / Команда Фастфуд / Aqua Teen Hunger Force Colon Movie Film for Theaters / ATHF (Мэтт Мейларио, Дэйв Уиллис / Matt Maiellaro, Dave Willis) [2007, Чёрный Юмор, Трэш, WEB-DLRip] MVO (2x2) + AVO (Горчаков)

    Ответить на тему
     
    Автор Сообщение

    Flirldrerve

    Создавать темы 18-Апр-2016 17:42

           

    [Цитировать]

    Аква Тин Хангер Форс - Фильм для Кинотеатров / Команда Фастфуд / Aqua Teen Hunger Force Colon Movie Film for Theaters / ATHF--Страна: США
    Жанр: Мультфильм, Чёрный Юмор, Трэш
    Продолжительность: 01:25:31
    Год выпуска: 2007
    -Перевод: Профессиональный (многоголосый, закадровый) | 2х2
    Перевод 2: Авторский (одноголосый, закадровый) | Василий Горчаков
    Субтитры: английские (полные, внешние, srt)
    Режиссёры: Мэтт Мейларио, Дэйв Уиллис / Matt Maiellaro, Dave Willis
    -В ролях:
    Dana Snyder, Carey Means, Dave Willis, Matt Maiellaro, Mike Schatz, Andy Merrill, C. Martin Croker, Bruce Campbell, Neil Peart, Chris Kattan
    -Описание:
    Команда Фастфуд - это молочный коктейль, картошка фри и тефтелька, которых соотвественно зовут Шейк, Фрай и Тефтель. Живут они в обычном городе с соседом грузином Карлом. Шейк - властный садист, Фрай - организатор и мозг команды, которого, судя по всему, у остальных нет. Тефтель же - просто кусок жареного фарша. Эту удивительную троицу ждут захватывающие приключения, которые раскроют тайну их происхождения. Когда бессмертный мир вещей угрожает галактическому балансу, подключается Команда Фастфуд, чтобы избежать трагедии!
    Этот мультфильм для взрослых создан на основе одноименного сериала. Сюжет - полный трэш. Герои вылезают из пирамиды, сражаются с боевым пуделем, встречают знахаря Линкольна, который отправил их, видимо, в будущее. Там с героями и их соседом начинают происходить ну совершенно безумные вещи...
    -Релиз групп All Films и RG Torrents.ru и RG Мультфильмы-Сэмпл: https://www.sendspace.com/file/0osya0-Качество: WEB-DLRip - Исходник (Спасибо SergeZuich)
    Формат: AVI
    Видео: 704x400 (1.76:1), 23.976 fps, XviD MPEG-4 ~1660 kbps avg, 0.25 bit/pixel
    Аудио: 48 kHz, AC3 Dolby Digital, 2/0 (L,R) ch, ~192 kbps | MVO
    Аудио 2: 48 kHz, AC3 Dolby Digital, 2/0 (L,R) ch, ~192 kbps | AVO
    Аудио 3: 48 kHz, AC3 Dolby Digital, 3/2 (L,C,R,l,r) + LFE ch, ~384 kbps | Eng
    -

    Отчёт MediaInfo

    General
    Complete name : C:\Users\Максим\Desktop\Мои релизы\Aqua.Teen.Hunger.Force.Colon.Movie.2007.WEB-DLRip.polkera\Aqua.Teen.Hunger.Force.Colon.Movie.2007.WEB-DLRip.polkera.avi
    Format : AVI
    Format/Info : Audio Video Interleave
    File size : 1.46 GiB
    Duration : 1h 25mn
    Overall bit rate : 2 448 Kbps
    Writing application : VirtualDubMod 1.5.10.3 | www.virtualdub-fr.org || (build 2550/release)
    Writing library : VirtualDubMod build 2550/release
    Video
    Format : MPEG-4 Visual
    Format profile : Streaming Video@L1
    Format settings, BVOP : Yes
    Format settings, QPel : No
    Format settings, GMC : No warppoints
    Format settings, Matrix : Custom
    Codec ID : XVID
    Codec ID/Hint : XviD
    Duration : 1h 25mn
    Bit rate : 1 661 Kbps
    Width : 704 pixels
    Height : 400 pixels
    Display aspect ratio : 16/9
    Frame rate : 23.976 fps
    Resolution : 24 bits
    Colorimetry : 4:2:0
    Scan type : Progressive
    Bits/(Pixel*Frame) : 0.246
    Stream size : 1 016 MiB (68%)
    Writing library : XviD 73
    Audio #1
    Format : AC-3
    Format/Info : Audio Coding 3
    Codec ID : 2000
    Duration : 1h 25mn
    Bit rate mode : Constant
    Bit rate : 192 Kbps
    Channel(s) : 2 channels
    Channel positions : L R
    Sampling rate : 48.0 KHz
    Stream size : 117 MiB (8%)
    Alignment : Split accross interleaves
    Interleave, duration : 42 ms (1.00 video frame)
    Interleave, preload duration : 500 ms
    Audio #2
    Format : AC-3
    Format/Info : Audio Coding 3
    Codec ID : 2000
    Duration : 1h 25mn
    Bit rate mode : Constant
    Bit rate : 192 Kbps
    Channel(s) : 2 channels
    Channel positions : L R
    Sampling rate : 48.0 KHz
    Stream size : 117 MiB (8%)
    Alignment : Split accross interleaves
    Interleave, duration : 42 ms (1.00 video frame)
    Interleave, preload duration : 500 ms
    Audio #3
    Format : AC-3
    Format/Info : Audio Coding 3
    Codec ID : 2000
    Duration : 1h 25mn
    Bit rate mode : Constant
    Bit rate : 384 Kbps
    Channel(s) : 6 channels
    Channel positions : Front: L C R, Surround: L R, LFE
    Sampling rate : 48.0 KHz
    Stream size : 235 MiB (16%)
    Alignment : Split accross interleaves
    Interleave, duration : 42 ms (1.00 video frame)
    Interleave, preload duration : 500 ms

    -

    Скриншоты

    -
    |
    |
    Скачать .torrent

    Скачать торрент-файл бесплатно и на максимальной скорости!

    Как скачивать? · Что такое торрент? · Рейтинг и ограничения

    !ВНИМАНИЕ!
    Сайт не распространяет и не хранит электронные версии произведений, а занимается лишь лишь предоставлением доступа к создаваемому пользователями каталогу ссылок на торрент-файлы, которые содержат только списки хеш-сумм, убедительная просьба с жалобами обращаться напрямую к пользователю. Файлы для обмена на трекере предоставлены пользователями сайта, и администрация не несёт ответственности за их содержание. Просьба не заливать файлы, защищенные авторскими правами, а также файлы нелегального содержания!


    _________________
    [Профиль] [ЛС]
    Показать сообщения:    
    Ответить на тему

    Текущее время: Сегодня, в 22:22

    Часовой пояс: GMT + 2



    Вы не можете начинать темы
    Вы не можете отвечать на сообщения
    Вы не можете редактировать свои сообщения
    Вы не можете удалять свои сообщения
    Вы не можете голосовать в опросах
    Вы не можете прикреплять файлы к сообщениям
    Вы не можете скачивать файлы