Register  ·  Log in
Forgot password?

  • 8 лучших свиданий (Марюс Вайсберг) [2016, комедия, мелодрама, WEB-DLRip]

    Reply to topic
    Author Message


    Post 18-Apr-2016 14:40



    8 лучших свиданий
    Жанр: комедия, мелодрама
    Год выпуска: 2016
    Продолжительность: 01:32:56
    Режиссёр: Марюс Вайсберг
    В ролях: Владимир Зеленский, Вера Брежнева, Владимир Епифанцев, Евгений Кошевой, Сергей Казанин, Нино Кантария, Виктор Щур, Мария Ивакова
    Описание: Одним солнечным днем преуспевающий владелец ветклиники Никита узнает, что неизлечимо болен. Он не подозревает, что это врачебная ошибка, и всерьез задумывается: кто же позаботится о его прекрасных жене, детях и бизнесе?.. И тут в его голову приходит мысль, что, как это ни прискорбно, кажется, пора подыскивать себе замену.
    Качество видео: WEB-DLRip
    Формат видео: AVI
    Видео: XviD, 720x400, 25fps, 1901kbps, 0.265 Bits/(Pixel*Frame)
    Аудио: AC3, 48kHz, 2ch, 192kbps


    Complete name : D:\Фильмы\8 лучших свиданий.avi
    Format : AVI
    Format/Info : Audio Video Interleave
    File size : 1.37 GiB
    Duration : 1h 32mn
    Overall bit rate : 2 109 Kbps
    Movie name :
    Writing application : VirtualDubMod | || (build 2550/release)
    ID : 0
    Format : MPEG-4 Visual
    Format profile : Advanced Simple@L5
    Format settings, BVOP : 2
    Format settings, QPel : No
    Format settings, GMC : No warppoints
    Format settings, Matrix : Custom
    Codec ID : XVID
    Codec ID/Hint : XviD
    Duration : 1h 32mn
    Bit rate : 1 907 Kbps
    Width : 720 pixels
    Height : 400 pixels
    Display aspect ratio : 16:9
    Frame rate : 25.000 fps
    Color space : YUV
    Chroma subsampling : 4:2:0
    Bit depth : 8 bits
    Scan type : Progressive
    Compression mode : Lossy
    Bits/(Pixel*Frame) : 0.265
    Stream size : 1.24 GiB (90%)
    Writing library : XviD 1.2.1 (UTC 2008-12-04)
    ID : 1
    Format : AC-3
    Format/Info : Audio Coding 3
    Mode extension : CM (complete main)
    Format settings, Endianness : Big
    Codec ID : 2000
    Duration : 1h 32mn
    Bit rate mode : Constant
    Bit rate : 192 Kbps
    Channel(s) : 2 channels
    Channel positions : Front: L R
    Sampling rate : 48.0 KHz
    Frame rate : 31.250 fps (1536 spf)
    Compression mode : Lossy
    Stream size : 128 MiB (9%)
    Alignment : Split accross interleaves
    Interleave, duration : 40 ms (1.00 video frame)
    Interleave, preload duratio : 500 ms

    Скриншот c названием фильма


    Download .torrent

    Download free and at maximum speed!

    How to Download? · What is a torrent? · Ratings and Limitations

    The site does not extend and does not store electronic(digital) versions of products, and only gives access to a reference catalogue created by users on torrent-files which contain only lists of the hash-sums, the earnest entreaty, with complaints(abuse) to access directly to the user. Files for an exchange on tracker are given by users of a site, and the administration does not bear the responsibility for their maintenance. The request to not fill in the files protected by copyrights, and also files of the illegal maintenance!

    [Profile] [PM]
    Display posts from previous:    
    Reply to topic

    The time now is: Today 06:30

    All times are GMT + 3 Hours

    You cannot post new topics in this forum
    You cannot reply to topics in this forum
    You cannot edit your posts in this forum
    You cannot delete your posts in this forum
    You cannot vote in polls in this forum
    You cannot attach files in this forum
    You cannot download files in this forum