BitTorrentTracker PerecTracker.org
BitTorrentTracker PerecTracker.org
    
Регистрация  ·  Вход
 
 · 
Забыли пароль?

  • Выживший / The Revenant (Алехандро Гонсалес Иньярриту / Alejandro González Iñárritu) [2015, США, триллер, драма, приключения, вестерн, BDRip 720p] Dub + VO (Дмитрий Есарев) + Sub Rus, Eng + Original Eng

    Ответить на тему
     
    Автор Сообщение

    Light

    Создавать темы 18-Апр-2016 13:40

           

    [Цитировать]

    -Выживший / The Revenant-Страна: США
    Студия: Anonymous Content, Appian Way, New Regency Pictures
    Жанр: триллер, драма, приключения, вестерн
    Год выпуска: 2015
    Продолжительность: 2:36:21-Перевод: Профессиональный (дублированный) Blu-ray NOR
    Перевод: Одноголосый закадровый Дмитрий Есарев
    Cубтитры: русские (форсированные и три варианта полных), украинские, английские (форсированные и обычные полные)
    Оригинальная аудиодорожка: английский-Режиссер: Алехандро Гонсалес Иньярриту / Alejandro González Iñárritu
    В ролях: Леонардо ДиКаприо, Том Харди, Донал Глисон, Уилл Поултер, Пол Андерсон, Лукас Хаас, Брэд Картер, Кристоффер Йонер, Брендан Флетчер, Хавьер Ботет, Кори Грим, Роберт Молони, Винсент Леклерк, Джошуа Бёрдж, МакКалеб Барнетт, Рэй Чейз, Тимоти Лайл, Эдриан Макморран, Дэйв Бурчилл, Майкл Виллар-Описание: Охотник Хью Гласс серьезно ранен на неизведанных просторах американского Дикого Запада. Товарищ Хью по отряду покорителей новых земель Джон Фицжеральд предательски оставляет его умирать в одиночестве. Теперь у Гласса осталось только одно оружие — его сила воли. Он готов бросить вызов первобытной природе, суровой зиме и враждебным племенам индейцев, только чтобы выжить и отомстить Фицжеральду.-Сэмпл-Тип релиза: BDRip 720p
    Контейнер: MKV
    Видео: MPEG-4 AVC, 1280 x 536, 23.976 fps, ~5621 kbps
    Аудио: Russian: DTS Audio 5.1 / 48 kHz / 768 kbps |Дубляж|
    Аудио 2: Russian: DTS Audio 5.1 / 48 kHz / 1509 kbps |Дмитрий Есарев|
    Аудио 3: English: DTS Audio 5.1 / 48 kHz / 1509 kbps
    Аудио 3: Ukrainian: 48 kHz, AC3, 3/2 (L,C,R,l,r) + LFE ch, ~448.00 kbps avg |Дубляж|
    Формат субтитров: softsub (SRT)

    Видеоряд от EbP

    Release InfoRELEASE NAME..: The Revenant 2015 720p BluRay DTS x264-EbPRELEASE DATE..: 2016.04.12RELEASE SIZE..: 7.94 GBRUNTIME.......: 2h 36mnVIDEO CODEC...: x264, crf, L4.1FRAMERATE.....: 23.976 fpsBITRATE.......: 5621 KbpsRESOLUTION....: 1280 x 536AUDIO.........: English DTS 5.1 @ 1509 KbpsSUBTITLES.....: Eng-Forced, Eng, Eng-SDH (.srt)CHAPTERS......: Yes (Unnamed)SOURCE........: 1080p Blu-ray AVC DTS-HD MA 7.1-BAKED (thx dancingdemon)ENCODER.......: metesa@EbP (#37)GREETiNGS.....: MM, k4ne, Nick007, 9mm, the whole EbP & iNK crew and all my friends!
    x264 Infox264 [info]: frame I:1156 Avg QP:12.88 size:128195x264 [info]: frame P:54125 Avg QP:15.10 size: 54898x264 [info]: frame B:169647 Avg QP:16.15 size: 21449x264 [info]: consecutive B-frames: 2.5% 4.5% 7.5% 36.6% 15.1% 22.5% 3.7% 5.1% 0.8% 0.6% 1.0%

    MI

    GeneralUnique ID : 226634025347827756086009338264632100606 (0xAA8020263C7E9071AEEAAEC3A94F06FE)Complete name : S:\На хранении\Выживший (2015. The Revenant) 720p.mkvFormat : MatroskaFormat version : Version 4 / Version 2File size : 10.9 GiBDuration : 2h 36mnOverall bit rate : 9 966 KbpsMovie name : Release for RuTrackerEncoded date : UTC 2016-04-18 07:36:13Writing application : mkvmerge v9.0.1 ('Obstacles') 64bitWriting library : libebml v1.3.3 + libmatroska v1.4.4Cover : YesAttachments : cover.jpg
    VideoID : 1Format : AVCFormat/Info : Advanced Video CodecFormat profile : High@L4.1Format settings, CABAC : YesFormat settings, ReFrames : 12 framesCodec ID : V_MPEG4/ISO/AVCDuration : 2h 36mnBit rate : 5 763 KbpsWidth : 1 280 pixelsHeight : 536 pixelsDisplay aspect ratio : 2.40:1Frame rate mode : ConstantFrame rate : 23.976 (24000/1001) fpsColor space : YUVChroma subsampling : 4:2:0Bit depth : 8 bitsScan type : ProgressiveBits/(Pixel*Frame) : 0.350Stream size : 6.29 GiB (58%)Title : The Revenant 2015 720p BluRay DTS x264-EbPWriting library : x264 core 142 r2431+42 c69a006 tMod [8-bit@4:2:0 X86_64]Encoding settings : cabac=1 / ref=12 / deblock=1:-3:-3 / analyse=0x3:0x133 / me=umh / subme=11 / psy=1 / fade_compensate=0.00 / psy_rd=1.05:0.00 / mixed_ref=1 / me_range=32 / chroma_me=1 / trellis=2 / 8x8dct=1 / cqm=0 / deadzone=21,11 / fast_pskip=0 / chroma_qp_offset=-2 / threads=12 / lookahead_threads=3 / sliced_threads=0 / nr=0 / decimate=0 / interlaced=0 / bluray_compat=0 / constrained_intra=0 / fgo=0 / bframes=10 / b_pyramid=2 / b_adapt=2 / b_bias=0 / direct=3 / weightb=1 / open_gop=0 / weightp=2 / keyint=250 / keyint_min=23 / scenecut=40 / intra_refresh=0 / rc_lookahead=60 / rc=crf / mbtree=0 / crf=15.1000 / qcomp=0.70 / qpmin=0:0:0 / qpmax=69:69:69 / qpstep=4 / vbv_maxrate=62500 / vbv_bufsize=78125 / crf_max=0.0 / nal_hrd=none / filler=0 / ip_ratio=1.30 / pb_ratio=1.20 / aq=3:0.65 / aq-sensitivity=10.00 / aq-factor=1.00:1.00:1.00 / aq2=0 / aq3=0Language : EnglishDefault : YesForced : NoColor range : LimitedMatrix coefficients : BT.709
    Audio #1ID : 2Format : DTSFormat/Info : Digital Theater SystemsMode : 16Format settings, Endianness : BigCodec ID : A_DTSDuration : 2h 36mnBit rate mode : ConstantBit rate : 768 KbpsChannel(s) : 6 channelsChannel positions : Front: L C R, Side: L R, LFESampling rate : 48.0 KHzFrame rate : 93.750 fps (512 spf)Bit depth : 24 bitsCompression mode : LossyStream size : 859 MiB (8%)Title : ДубляжLanguage : RussianDefault : YesForced : No
    Audio #2ID : 3Format : DTSFormat/Info : Digital Theater SystemsMode : 16Format settings, Endianness : BigCodec ID : A_DTSDuration : 2h 36mnBit rate mode : ConstantBit rate : 1 509 KbpsChannel(s) : 6 channelsChannel positions : Front: L C R, Side: L R, LFESampling rate : 48.0 KHzFrame rate : 93.750 fps (512 spf)Bit depth : 24 bitsCompression mode : LossyStream size : 1.65 GiB (15%)Title : Дмитрий ЕсаревLanguage : RussianDefault : NoForced : No
    Audio #3ID : 4Format : DTSFormat/Info : Digital Theater SystemsMode : 16Format settings, Endianness : BigCodec ID : A_DTSDuration : 2h 36mnBit rate mode : ConstantBit rate : 1 509 KbpsChannel(s) : 6 channelsChannel positions : Front: L C R, Side: L R, LFESampling rate : 48.0 KHzFrame rate : 93.750 fps (512 spf)Bit depth : 24 bitsCompression mode : LossyStream size : 1.65 GiB (15%)Language : EnglishDefault : NoForced : No
    Audio #4ID : 5Format : AC-3Format/Info : Audio Coding 3Mode extension : CM (complete main)Format settings, Endianness : BigCodec ID : A_AC3Duration : 2h 36mnBit rate mode : ConstantBit rate : 448 KbpsChannel(s) : 6 channelsChannel positions : Front: L C R, Side: L R, LFESampling rate : 48.0 KHzFrame rate : 31.250 fps (1536 spf)Compression mode : LossyStream size : 501 MiB (4%)Title : ДубляжLanguage : UkrainianDefault : NoForced : No
    Text #1ID : 6Format : UTF-8Codec ID : S_TEXT/UTF8Codec ID/Info : UTF-8 Plain TextDuration : 2h 35mnBit rate : 5 bpsCount of elements : 146Stream size : 6.05 KiB (0%)Title : ForcedLanguage : RussianDefault : YesForced : No
    Text #2ID : 7Format : UTF-8Codec ID : S_TEXT/UTF8Codec ID/Info : UTF-8 Plain TextDuration : 2h 35mnBit rate : 37 bpsCount of elements : 847Stream size : 43.0 KiB (0%)Title : v1Language : RussianDefault : NoForced : No
    Text #3ID : 8Format : UTF-8Codec ID : S_TEXT/UTF8Codec ID/Info : UTF-8 Plain TextDuration : 2h 20mnBit rate : 48 bpsCount of elements : 974Stream size : 49.7 KiB (0%)Title : v2Language : RussianDefault : NoForced : No
    Text #4ID : 9Format : UTF-8Codec ID : S_TEXT/UTF8Codec ID/Info : UTF-8 Plain TextDuration : 2h 25mnBit rate : 45 bpsCount of elements : 974Stream size : 48.9 KiB (0%)Title : v3Language : RussianDefault : NoForced : No
    Text #5ID : 10Format : UTF-8Codec ID : S_TEXT/UTF8Codec ID/Info : UTF-8 Plain TextDuration : 2h 35mnBit rate : 5 bpsCount of elements : 146Stream size : 5.76 KiB (0%)Title : ForcedLanguage : UkrainianDefault : NoForced : No
    Text #6ID : 11Format : UTF-8Codec ID : S_TEXT/UTF8Codec ID/Info : UTF-8 Plain TextDuration : 2h 35mnBit rate : 38 bpsCount of elements : 846Stream size : 44.5 KiB (0%)Language : UkrainianDefault : NoForced : No
    Text #7ID : 12Format : UTF-8Codec ID : S_TEXT/UTF8Codec ID/Info : UTF-8 Plain TextDuration : 2h 35mnBit rate : 3 bpsCount of elements : 135Stream size : 3.56 KiB (0%)Title : ForcedLanguage : EnglishDefault : NoForced : No
    Text #8ID : 13Format : UTF-8Codec ID : S_TEXT/UTF8Codec ID/Info : UTF-8 Plain TextDuration : 2h 35mnBit rate : 23 bpsCount of elements : 834Stream size : 26.6 KiB (0%)Language : EnglishDefault : NoForced : No
    Text #9ID : 14Format : UTF-8Codec ID : S_TEXT/UTF8Codec ID/Info : UTF-8 Plain TextDuration : 2h 25mnBit rate : 30 bpsCount of elements : 1231Stream size : 32.4 KiB (0%)Title : SDHLanguage : EnglishDefault : NoForced : No
    Text #10ID : 15Format : UTF-8Codec ID : S_TEXT/UTF8Codec ID/Info : UTF-8 Plain TextDuration : 2h 27mnBit rate : 42 bpsCount of elements : 1274Stream size : 45.5 KiB (0%)Title : SDH-COLOREDLanguage : EnglishDefault : NoForced : No
    Menu00:00:00.000 : en:Chapter 100:05:04.846 : en:Chapter 200:07:58.311 : en:Chapter 300:13:18.965 : en:Chapter 400:21:10.686 : en:Chapter 500:28:21.658 : en:Chapter 600:37:07.767 : en:Chapter 700:44:00.346 : en:Chapter 800:48:14.975 : en:Chapter 900:51:42.266 : en:Chapter 1000:56:51.033 : en:Chapter 1100:59:50.754 : en:Chapter 1201:03:31.766 : en:Chapter 1301:11:52.433 : en:Chapter 1401:16:36.133 : en:Chapter 1501:21:22.377 : en:Chapter 1601:28:31.139 : en:Chapter 1701:37:29.969 : en:Chapter 1801:48:44.643 : en:Chapter 1901:53:08.782 : en:Chapter 2001:59:05.930 : en:Chapter 2102:02:56.703 : en:Chapter 2202:15:45.262 : en:Chapter 2302:22:51.021 : en:Chapter 24
    Скриншоты

    Зеркало


    Цитата:
    Цитата:

    • Перевод доступен благодаря: mv73, shandorra, Прохожий, napaHouk, fatalflaw, Wa1ker, sa1992, igrok2012, Loki1982, Антиквар, DREADG, kidman644, shagrath88, Shrooms, Start.Point, Mexicana, ZeDOK, Star Dogshurikkein, pustov, ivan_aka_flint, Gambler, J. Green, Artemii, Eko. Работа со звуком Переводман
    • Сохранены оригинальные главы.
    • За дубляж и субтитры спасибо HDClub.
    Скачать .torrent

    Скачать торрент-файл бесплатно и на максимальной скорости!

    Как скачивать? · Что такое торрент? · Рейтинг и ограничения

    !ВНИМАНИЕ!
    Сайт не распространяет и не хранит электронные версии произведений, а занимается лишь лишь предоставлением доступа к создаваемому пользователями каталогу ссылок на торрент-файлы, которые содержат только списки хеш-сумм, убедительная просьба с жалобами обращаться напрямую к пользователю. Файлы для обмена на трекере предоставлены пользователями сайта, и администрация не несёт ответственности за их содержание. Просьба не заливать файлы, защищенные авторскими правами, а также файлы нелегального содержания!


    _________________
    [Профиль] [ЛС]
    Показать сообщения:    
    Ответить на тему

    Текущее время: Сегодня, в 04:23

    Часовой пояс: GMT + 2



    Вы не можете начинать темы
    Вы не можете отвечать на сообщения
    Вы не можете редактировать свои сообщения
    Вы не можете удалять свои сообщения
    Вы не можете голосовать в опросах
    Вы не можете прикреплять файлы к сообщениям
    Вы не можете скачивать файлы