BitTorrentTracker PerecTracker.org
BitTorrentTracker PerecTracker.org
    
Регистрация  ·  Вход
 
 · 
Забыли пароль?

  • Хранитель Лев: Герои саванны / The Lion Guard: Return of the Roar (Хауи Паркинс / Howy Parkins) [2015, Мультфильм, семейный, приключения, WEB-DLRip] Dub

    Ответить на тему
     
    Автор Сообщение

    Flirldrerve

    Создавать темы 18-Апр-2016 13:40

           

    [Цитировать]

    Хранитель Лев: Герои саванны / The Lion Guard: Return of the Roar--Страна: США
    Жанр: Мультфильм, приключения
    Продолжительность: 00:44:20
    Год выпуска: 2015
    -Перевод: Профессиональный (дублированный)
    Субтитры: нет
    Режиссёр: Хауи Паркинс / Howy Parkins
    -В ролях:
    Ди Брэдли Бейкер, Джефф Беннетт, Бо Блэк, Дусан Браун, Alex Cartañá, Макс Чарльз, Сара Хайланд, Джеймс Эрл Джонс, Эндрю Кисино, Сэм Лаваньино
    -Описание:
    Львёнок по имени Кион — второй детёныш Симбы и Налы, младший брат Киары. Пришло время, когда он неожиданно для себя овладел рыком древних — способностью всех вторых детей в королевской семье, благодаря которой они становятся лидерами львиной гвардии. Львиная гвардия — отряд из пяти львов, защищающих земли Прайда и круг жизни: самого свирепого (лидера), самого смелого, самого сильного, самого быстрого и самого зоркого. Но вместо того, чтобы собрать отряд львов, Кион собрал отряд самых разных животных, в чьих способностях и верности был уверен.
    -Релиз групп All Films и RG Torrents.ru и RG Мультфильмы-Сэмпл: https://www.sendspace.com/file/ggozv4-Качество: WEB-DLRip - Исходник (Спасибо -Azureus-)
    Формат: AVI
    Видео: 704x400 (1.76:1), 23.976 fps, XviD build 73 ~2140 kbps avg, 0.32 bit/pixel
    Аудио: 48 kHz, AC3 Dolby Digital, 2/0 (L,R) ch, ~192 kbps
    -

    Отчёт MediaInfo

    General
    Complete name : C:\Users\Максим\Desktop\The.Lion.Guard.Return.of.the.Roar.2015.WEB-DLRip.polkera.avi
    Format : AVI
    Format/Info : Audio Video Interleave
    File size : 743 MiB
    Duration : 44mn 20s
    Overall bit rate : 2 342 Kbps
    Writing application : VirtualDubMod 1.5.10.3 | www.virtualdub-fr.org || (build 2550/release)
    Writing library : VirtualDubMod build 2550/release
    Video
    Format : MPEG-4 Visual
    Format profile : Streaming Video@L1
    Format settings, BVOP : Yes
    Format settings, QPel : No
    Format settings, GMC : No warppoints
    Format settings, Matrix : Custom
    Codec ID : XVID
    Codec ID/Hint : XviD
    Duration : 44mn 20s
    Bit rate : 2 140 Kbps
    Width : 704 pixels
    Height : 400 pixels
    Display aspect ratio : 16/9
    Frame rate : 23.976 fps
    Resolution : 24 bits
    Colorimetry : 4:2:0
    Scan type : Progressive
    Bits/(Pixel*Frame) : 0.317
    Stream size : 679 MiB (91%)
    Writing library : XviD 73
    Audio
    Format : AC-3
    Format/Info : Audio Coding 3
    Codec ID : 2000
    Duration : 44mn 20s
    Bit rate mode : Constant
    Bit rate : 192 Kbps
    Channel(s) : 2 channels
    Channel positions : L R
    Sampling rate : 48.0 KHz
    Stream size : 60.9 MiB (8%)
    Alignment : Split accross interleaves
    Interleave, duration : 42 ms (1.00 video frame)
    Interleave, preload duration : 500 ms

    -

    Скриншоты

    -
    |
    |
    Скачать .torrent

    Скачать торрент-файл бесплатно и на максимальной скорости!

    Как скачивать? · Что такое торрент? · Рейтинг и ограничения

    !ВНИМАНИЕ!
    Сайт не распространяет и не хранит электронные версии произведений, а занимается лишь лишь предоставлением доступа к создаваемому пользователями каталогу ссылок на торрент-файлы, которые содержат только списки хеш-сумм, убедительная просьба с жалобами обращаться напрямую к пользователю. Файлы для обмена на трекере предоставлены пользователями сайта, и администрация не несёт ответственности за их содержание. Просьба не заливать файлы, защищенные авторскими правами, а также файлы нелегального содержания!


    _________________
    [Профиль] [ЛС]
    Показать сообщения:    
    Ответить на тему

    Текущее время: Сегодня, в 22:01

    Часовой пояс: GMT + 2



    Вы не можете начинать темы
    Вы не можете отвечать на сообщения
    Вы не можете редактировать свои сообщения
    Вы не можете удалять свои сообщения
    Вы не можете голосовать в опросах
    Вы не можете прикреплять файлы к сообщениям
    Вы не можете скачивать файлы