Register  ·  Log in
Forgot password?

  • Тишина / Hush (Майк Флэнеган / Mike Flanagan) [2016, США, Ужасы, триллер, HDRip] VO (datynet; перевод: Куценко)

    Reply to topic
    Author Message


    Post 18-Apr-2016 14:40



    Тишина / HushСтрана: США
    Жанр: Ужасы, триллер
    Год выпуска: 2016
    Продолжительность: 01:21:33
    Перевод: Одноголосый закадровый datynet; перевод: Куценко
    Cубтитры: нет
    Режиссер: Майк Флэнеган / Mike Flanagan
    В ролях: Джон Галлахер мл., Кейт Сигел, Майкл Трукко, Саманта Слойан, Эмилия Грейвз
    Описание: Молодая писательница Мэдди Янг вынуждена жить в мире вечной тишины после того, как в подростковом возрасте лишилась слуха. Она поселилась в уединённом домике в глубине лесной чащи, где на мили вокруг нет ни единой души и живёт там в полном одиночестве и гармонии с собой. Безопасную тишину нарушает проникший поздно вечером через окно психопат в маске, выбравший Мэдди в качестве своей очередной жертвы и решивший поиграть с беззащитной девушкой в кошки-мышки.
    Доп. информация:
    Качество видео: HDRip
    Формат видео: AVI
    Видео: 720x304 (2.37:1), 25 fps, XviD MPEG-4 ~2138 kbps avg, 0.39 bit/pixel
    Аудио: 48 kHz, MPEG Layer 3, 2 ch, ~192.00 kbps avg


    Complete name : E:\Hush.2016.HDRip.XviD.AC3-EVO\Hush.2016.HDRip.avi
    Format : AVI
    Format/Info : Audio Video Interleave
    File size : 1.33 GiB
    Duration : 1h 21mn
    Overall bit rate : 2 340 Kbps
    Writing application : AVI-Mux GUI, Feb 16 201019:42:50
    Writing library : VirtualDub build 35576/release
    ID : 0
    Format : MPEG-4 Visual
    Format profile : Advanced Simple@L5
    Format settings, BVOP : 2
    Format settings, QPel : No
    Format settings, GMC : No warppoints
    Format settings, Matrix : Default (H.263)
    Codec ID : XVID
    Codec ID/Hint : XviD
    Duration : 1h 21mn
    Bit rate : 2 139 Kbps
    Width : 720 pixels
    Height : 304 pixels
    Display aspect ratio : 2.35:1
    Frame rate : 25.000 fps
    Color space : YUV
    Chroma subsampling : 4:2:0
    Bit depth : 8 bits
    Scan type : Progressive
    Compression mode : Lossy
    Bits/(Pixel*Frame) : 0.391
    Stream size : 1.22 GiB (91%)
    Writing library : XviD 66
    ID : 1
    Format : MPEG Audio
    Format version : Version 1
    Format profile : Layer 3
    Codec ID : 55
    Codec ID/Hint : MP3
    Duration : 1h 21mn
    Bit rate mode : Constant
    Bit rate : 192 Kbps
    Channel(s) : 2 channels
    Sampling rate : 48.0 KHz
    Compression mode : Lossy
    Stream size : 112 MiB (8%)
    Alignment : Split accross interleaves
    Interleave, duration : 40 ms (1.00 video frame)
    Interleave, preload duration : 500 ms

    Скриншот c названием фильма


    Download .torrent

    Download free and at maximum speed!

    How to Download? · What is a torrent? · Ratings and Limitations

    The site does not extend and does not store electronic(digital) versions of products, and only gives access to a reference catalogue created by users on torrent-files which contain only lists of the hash-sums, the earnest entreaty, with complaints(abuse) to access directly to the user. Files for an exchange on tracker are given by users of a site, and the administration does not bear the responsibility for their maintenance. The request to not fill in the files protected by copyrights, and also files of the illegal maintenance!

    [Profile] [PM]
    Display posts from previous:    
    Reply to topic

    The time now is: Today 06:31

    All times are GMT + 3 Hours

    You cannot post new topics in this forum
    You cannot reply to topics in this forum
    You cannot edit your posts in this forum
    You cannot delete your posts in this forum
    You cannot vote in polls in this forum
    You cannot attach files in this forum
    You cannot download files in this forum