BitTorrentTracker PerecTracker.org
BitTorrentTracker PerecTracker.org
    
Регистрация  ·  Вход
 
 · 
Забыли пароль?

  • Винил / Vinyl / Сезон: 1 / Серии: 1-10 из 10 (Аллен Коултер, Николь Кэссел, Марк Романек, Питер Соллетт) [2016, Драма, музыка, HDTVRip 1080p] MVO (Greb and Creative Group Company) + Original + Subs (Rus)

    Ответить на тему
     
    Автор Сообщение

    rechyn

    Создавать темы 18-Апр-2016 11:07

           

    [Цитировать]

    Винил / Vinyl-Год выпуска: 2016
    Страна: США
    Жанр: Драма, музыка
    Продолжительность: ~00:58:00 [серия] / ~01:48:00 [1 серия]
    Перевод: Профессиональный (многоголосый закадровый) Greb and Creative Group Company
    Режиссёр: Аллен Коултер, Николь Кэссел, Марк Романек, Питер Соллетт
    В ролях: Бобби Каннавейл, Оливия Уайлд, Рэй Романо, Ато Эссонда, Макс Казелла, П.Дж. Бирн, Дж.С. МакКензи, Биргитта Йорт Сёренсен, Джуно Темпл, Джек Куэйд
    Описание: Самая громкая премьера 2016 года от мэтра кино Мартина Скорсезе, кумира миллионов Мика Джаггера и сценариста «Подпольной империи» и «Сопрано» Терренса Уинтера. Сериал переносит зрителя в Нью-Йорк 1970-х годов, без прикрас изображая заряженный сексом и наркотиками музыкальный бизнес на заре панка, диско и хип-хопа. Время, по которому невозможно не ностальгировать даже тем, кто родился намного позже. По сюжету главный герой Ричи Финестра в исполнении Бобби Каннавале («Подпольная империя», «Жасмин») рвет и мечет, чтобы придумать новое направление и возродить свой звукозаписывающий лейбл, при этом преодолевая личностный кризис и неурядицы семейной жизни. Роль богемной жены с характером исполнила обворожительная Оливия Уайлд («Доктор Хаус», «Она», «Трон: Наследие»), а бизнес-партнером стал Рэй Романо («Родители», «Все любят Реймонда»). От ABBA до LedZeppelin, от Дэвида Боуи до Джеймса Брауна – сумасшедший коктейль 70-х в новой драме HBO. Как говорит Ричи Финестра: «Ставлю пластинку, спускаю иглу, врубаю звук!».
    Ссылка на предыдущие и альтернативные раздачи
    Релиз: CasStudio
    Качество: HDTVRip 1080p Сэмпл
    Контейнер: MKV
    Видео: AVC (x264) | 1920x1080p | 25.000 fps | ~5000 kbps
    Аудио: AC3 | 48 KHz | 5.1 (Front: L С R Side: L R) + LFE | ~640 kbps [RUS]
    Аудио 2: AC3 | 48 KHz | 5.1 (Front: L С R Side: L R) + LFE | ~384 kbps [ENG]
    Субтитры: Русские

    Список серий

    1 Пилот / Pilot
    2 И снова как вчера / Yesterday Once More
    3 Сокровенные тайны / Whispered Secrets
    4 Ракетка / The Racket
    5 Расист и черта изведет / He in Racist Fire
    6 Циклон / Cyclone
    7 Король и я / The King and I
    8 Ми. Ля. Си. / E.A.B.
    9 Королева рок-н-ролла / Rock and Roll Queen
    10 Алиби / Alibi

    MediaInfo

    Общее
    Уникальный идентификатор                 : 195639251078803710131193148146276530246 (0x932EBFCB3E9C6EED87192FAEC2C27846)
    Формат                                   : Matroska
    Версия формата                           : Version 4 / Version 2
    Размер файла                             : 4,41 Гбайт
    Продолжительность                        : 1 ч. 48 м.
    Общий поток                              : 5832 Кбит/сек
    Название фильма                          : Vinyl.S01E01.1080p.HDTV.DD5.1.H264-CasStudio
    Дата кодирования                         : UTC 2016-02-14 21:14:11
    Программа кодирования                    : mkvmerge v8.8.0 ('Wind at my back') 64bit
    Библиотека кодирования                   : libebml v1.3.3 + libmatroska v1.4.4
    Видео
    Идентификатор                            : 1
    Формат                                   : AVC
    Формат/Информация                        : Advanced Video Codec
    Профиль формата                          : High@L4.1
    Параметр CABAC формата                   : Да
    Параметр ReFrames формата                : 4 кадра
    Идентификатор кодека                     : V_MPEG4/ISO/AVC
    Продолжительность                        : 1 ч. 48 м.
    Битрейт                                  : 5000 Кбит/сек
    Ширина                                   : 1920 пикселей
    Высота                                   : 1080 пикселей
    Соотношение сторон                       : 16:9
    Режим частоты кадров                     : Постоянный
    Частота кадров                           : 25,000 кадров/сек
    Цветовое пространство                    : YUV
    Субдискретизация насыщенности            : 4:2:0
    Битовая глубина                          : 8 бит
    Тип развёртки                            : Прогрессивная
    Бит/(Пиксели*Кадры)                      : 0.096
    Размер потока                            : 3,78 Гбайт (86%)
    Библиотека кодирования                   : x264 core 142 r2491 24e4fed
    Настройки программы                      : cabac=1 / ref=3 / deblock=1:1:-1 / analyse=0x3:0x133 / me=umh / subme=9 / psy=1 / psy_rd=1.00:0.00 / mixed_ref=1 / me_range=48 / chroma_me=1 / trellis=2 / 8x8dct=1 / cqm=0 / deadzone=21,11 / fast_pskip=0 / chroma_qp_offset=-2 / threads=36 / lookahead_threads=4 / sliced_threads=0 / slices=4 / nr=0 / decimate=1 / interlaced=0 / bluray_compat=0 / constrained_intra=0 / bframes=6 / b_pyramid=2 / b_adapt=2 / b_bias=0 / direct=3 / weightb=1 / open_gop=0 / weightp=2 / keyint=250 / keyint_min=22 / scenecut=40 / intra_refresh=0 / rc_lookahead=50 / rc=2pass / mbtree=1 / bitrate=5000 / ratetol=1.0 / qcomp=0.70 / qpmin=10 / qpmax=49 / qpstep=4 / cplxblur=20.0 / qblur=0.5 / vbv_maxrate=9000 / vbv_bufsize=2500 / nal_hrd=none / filler=0 / ip_ratio=1.40 / aq=1:1.00
    Default                                  : Да
    Forced                                   : Нет
    Аудио #1
    Идентификатор                            : 2
    Формат                                   : AC-3
    Формат/Информация                        : Audio Coding 3
    Расширение режима                        : CM (complete main)
    Параметр Endianness формата              : Big
    Идентификатор кодека                     : A_AC3
    Продолжительность                        : 1 ч. 48 м.
    Вид битрейта                             : Постоянный
    Битрейт                                  : 640 Кбит/сек
    Каналы                                   : 6 каналов
    Расположение каналов                     : Front: L C R, Side: L R, LFE
    Частота                                  : 48,0 КГц
    Частота кадров                           : 31,250 кадров/сек (1536 spf)
    Метод сжатия                             : С потерями
    Размер потока                            : 495 Мбайт (11%)
    Язык                                     : Russian
    Default                                  : Да
    Forced                                   : Нет
    Аудио #2
    Идентификатор                            : 3
    Формат                                   : AC-3
    Формат/Информация                        : Audio Coding 3
    Расширение режима                        : CM (complete main)
    Параметр Endianness формата              : Big
    Идентификатор кодека                     : A_AC3
    Продолжительность                        : 1 ч. 48 м.
    Вид битрейта                             : Постоянный
    Битрейт                                  : 192 Кбит/сек
    Каналы                                   : 2 канала
    Расположение каналов                     : Front: L R
    Частота                                  : 48,0 КГц
    Частота кадров                           : 31,250 кадров/сек (1536 spf)
    Метод сжатия                             : С потерями
    Размер потока                            : 149 Мбайт (3%)
    Язык                                     : English
    Default                                  : Нет
    Forced                                   : Нет
    Текст
    Идентификатор                            : 4
    Формат                                   : UTF-8
    Идентификатор кодека                     : S_TEXT/UTF8
    Идентификатор кодека/Информация          : UTF-8 Plain Text
    Продолжительность                        : 1 ч. 44 м.
    Битрейт                                  : 92 бит/сек
    Count of elements                        : 1503
    Размер потока                            : 71,4 Кбайт (0%)
    Язык                                     : Russian
    Default                                  : Нет
    Forced                                   : Нет

    Скриншоты

    Скачать .torrent

    Скачать торрент-файл бесплатно и на максимальной скорости!

    Как скачивать? · Что такое торрент? · Рейтинг и ограничения

    !ВНИМАНИЕ!
    Сайт не распространяет и не хранит электронные версии произведений, а занимается лишь лишь предоставлением доступа к создаваемому пользователями каталогу ссылок на торрент-файлы, которые содержат только списки хеш-сумм, убедительная просьба с жалобами обращаться напрямую к пользователю. Файлы для обмена на трекере предоставлены пользователями сайта, и администрация не несёт ответственности за их содержание. Просьба не заливать файлы, защищенные авторскими правами, а также файлы нелегального содержания!


    _________________
    [Профиль] [ЛС]
    Показать сообщения:    
    Ответить на тему

    Текущее время: Сегодня, в 22:20

    Часовой пояс: GMT + 2



    Вы не можете начинать темы
    Вы не можете отвечать на сообщения
    Вы не можете редактировать свои сообщения
    Вы не можете удалять свои сообщения
    Вы не можете голосовать в опросах
    Вы не можете прикреплять файлы к сообщениям
    Вы не можете скачивать файлы