BitTorrentTracker PerecTracker.org
BitTorrentTracker PerecTracker.org
    
Регистрация  ·  Вход
 
 · 
Забыли пароль?

  • Голос страны / Голос країни (6 сезон) [2016, вокальное шоу, SATRip] 8 выпусков

    Ответить на тему
     
    Автор Сообщение

    rechyn

    Создавать темы 18-Апр-2016 10:51

           

    [Цитировать]

    Голос страны / Голос країни
    Дата/Год выпуска: 2016
    Страна: Украина
    Жанр: вокальное шоу
    Продолжительность: 8x120 минут
    Перевод: Не требуется
    Русские субтитры: нет
    Оригинальная аудиодорожка: украинский
    Режиссер: Екатерина Осадчая и Юрий Горбунов
    Телеканал: 1+1Описание: "Голос страны" - это адаптация голландского формата "The Voice". По правилам проекта, четыре звездных тренера формируют свои команды во время отборов вслепую. Они сидят спинами к сцене и выбирают конкурсантов, ориентируясь исключительно на их вокальные способности. Каждый из наставников может предложить сотрудничество только четырнадцати конкурсантам. После слепых прослушиваний исполнители продолжают борьбу во время следующих этапов - «Боев», «Нокаутов» и «Прямых эфиров».
    В шестом сезоне вокального проекта "Голос страны" зрители могут стать ближе к проекту и увидеть, что происходит за кулисами, как участники готовятся к выступлениям, как "платиновая четверка тренеров" Иван Дорн, Потап, Тина Кароль и Святослав Вакарчук взаимодействуют между собой в перерывах между съемками. Украинские композиции составят 60% музыкального наполнения сезона. Как уже успели отметить звездные наставники, уровень музыкальной подготовки участников шестого сезона намного выше, чем в предыдущем сезоне.
    Сэмпл: https://www.sendspace.com/file/jr8kou
    качество: SATRip
    формат: AVI
    Видео: Xvid 704x400 (16:9) 25fps ~1536kbps
    Аудио: MP3 48000Hz stereo 192kbps

    Список выпусков/серий

    1. Выпуск 1. Эфир 28 февраля 2016 года.
    2. Выпуск 2. Эфир 6 марта 2016 года.
    3. Выпуск 3. Эфир 13 марта 2016 года.
    4. Выпуск 4. Эфир 20 марта 2016 года.
    5. Выпуск 5. Эфир 27 марта 2016 года.
    6. Выпуск 6. Эфир 3 апреля 2016 года.
    7. Выпуск 7. Эфир 10 апреля 2016 года.
    8. Выпуск 8. Эфир 17 апреля 2016 года.

    MediaInfo

    General
    Complete name : J:\Мои раздачи\Голос страны. 1+1. Сезон 6\Голос страны. 1+1 (2016-02-28).avi
    Format : AVI
    Format/Info : Audio Video Interleave
    File size : 1.36 GiB
    Duration : 1h 52mn
    Overall bit rate : 1 736 Kbps
    Video
    ID : 0
    Format : MPEG-4 Visual
    Format profile : Advanced Simple@L5
    Format settings, BVOP : 2
    Format settings, QPel : No
    Format settings, GMC : No warppoints
    Format settings, Matrix : Default (H.263)
    Codec ID : XVID
    Codec ID/Hint : XviD
    Duration : 1h 52mn
    Bit rate : 1 535 Kbps
    Width : 704 pixels
    Height : 400 pixels
    Display aspect ratio : 16:9
    Frame rate : 25.000 fps
    Color space : YUV
    Chroma subsampling : 4:2:0
    Bit depth : 8 bits
    Scan type : Progressive
    Compression mode : Lossy
    Bits/(Pixel*Frame) : 0.218
    Stream size : 1.20 GiB (88%)
    Writing library : XviD 64
    Audio
    ID : 1
    Format : MPEG Audio
    Format version : Version 1
    Format profile : Layer 3
    Mode : Joint stereo
    Codec ID : 55
    Codec ID/Hint : MP3
    Duration : 1h 52mn
    Bit rate mode : Constant
    Bit rate : 192 Kbps
    Channel(s) : 2 channels
    Sampling rate : 48.0 KHz
    Compression mode : Lossy
    Stream size : 154 MiB (11%)
    Alignment : Split accross interleaves
    Interleave, duration : 40 ms (1.00 video frame)
    Interleave, preload duration : 500 ms
    Writing library : LAME3.98.2ЄЄЄЄЄЄЄЄЄЄ

    Скриншоты

    Скачать .torrent

    Скачать торрент-файл бесплатно и на максимальной скорости!

    Как скачивать? · Что такое торрент? · Рейтинг и ограничения

    !ВНИМАНИЕ!
    Сайт не распространяет и не хранит электронные версии произведений, а занимается лишь лишь предоставлением доступа к создаваемому пользователями каталогу ссылок на торрент-файлы, которые содержат только списки хеш-сумм, убедительная просьба с жалобами обращаться напрямую к пользователю. Файлы для обмена на трекере предоставлены пользователями сайта, и администрация не несёт ответственности за их содержание. Просьба не заливать файлы, защищенные авторскими правами, а также файлы нелегального содержания!


    _________________
    [Профиль] [ЛС]
    Показать сообщения:    
    Ответить на тему

    Текущее время: Сегодня, в 11:43

    Часовой пояс: GMT + 2



    Вы не можете начинать темы
    Вы не можете отвечать на сообщения
    Вы не можете редактировать свои сообщения
    Вы не можете удалять свои сообщения
    Вы не можете голосовать в опросах
    Вы не можете прикреплять файлы к сообщениям
    Вы не можете скачивать файлы