BitTorrentTracker PerecTracker.org
BitTorrentTracker PerecTracker.org
    
Регистрация  ·  Вход
 
 · 
Забыли пароль?

  • Винил / Vinyl / Сезон: 1 / Серии: 1-10 из 10 (Аллен Коултер, Николь Кэссел, Марк Романек, Питер Соллетт) [2016, Драма, музыка, HDTVRip] MVO (Greb and Creative Group Company) + Original + Subs (Rus, Eng)

    Ответить на тему
     
    Автор Сообщение

    rechyn

    Создавать темы 18-Апр-2016 10:47

           

    [Цитировать]

    -Винил | Vinyl--• Год выпуска: 2016
    • Страна: США
    • Жанр: Драма, музыка
    • Продолжительность: ~ 01:48:00-• Перевод: Профессиональный (многоголосый закадровый) | Greb and Creative Group Company (по заказу Amedia)-• Режиссёр: Аллен Коултер, Николь Кэссел, Марк Романек, Питер Соллетт-• В ролях: Бобби Каннавейл, Оливия Уайлд, Рэй Романо, Ато Эссонда, Макс Казелла, П.Дж. Бирн, Дж.С. МакКензи, Биргитта Йорт Сёренсен, Джуно Темпл, Джек Куэйд-• Описание: Самая громкая премьера 2016 года от мэтра кино Мартина Скорсезе, кумира миллионов Мика Джаггера и сценариста «Подпольной империи» и «Сопрано» Терренса Уинтера. Сериал переносит зрителя в Нью-Йорк 1970-х годов, без прикрас изображая заряженный сексом и наркотиками музыкальный бизнес на заре панка, диско и хип-хопа. Время, по которому невозможно не ностальгировать даже тем, кто родился намного позже. По сюжету главный герой Ричи Финестра в исполнении Бобби Каннавале («Подпольная империя», «Жасмин») рвет и мечет, чтобы придумать новое направление и возродить свой звукозаписывающий лейбл, при этом преодолевая личностный кризис и неурядицы семейной жизни. Роль богемной жены с характером исполнила обворожительная Оливия Уайлд («Доктор Хаус», «Она», «Трон: Наследие»), а бизнес-партнером стал Рэй Романо («Родители», «Все любят Реймонда»). От ABBA до LedZeppelin, от Дэвида Боуи до Джеймса Брауна – сумасшедший коктейль 70-х в новой драме HBO.--Ссылка на предыдущие и альтернативные раздачи-• Качество: HDTVRip
    • Формат: AVI
    • Видео: XviD | 720x400 (16:9) | 25.000 fps | ~1500 kbps
    • Аудио #1: MPEG Layer 3 | 48 KHz | 2.0 (Front: L R) | ~128 kbps [RUS]
    • Аудио #2: MPEG Layer 3 | 48 KHz | 2.0 (Front: L R) | ~128 kbps [ENG]
    • Субтитры: Русские (амедиа), английские (1-9)-

    ✘ Релиз ✘

    • qqss44

    ✘ MediaInfo ✘

    Общее
    Формат                                   : AVI
    Формат/Информация                        : Audio Video Interleave
    Размер файла                             : 718 Мбайт
    Продолжительность                        : 56 м.
    Общий поток                              : 1771 Кбит/сек
    Программа кодирования                    : VirtualDubMod 1.5.10.3 | www.virtualdub-fr.org || (build 2550/release)
    Библиотека кодирования                   : VirtualDubMod build 2550/release
    Видео
    Идентификатор                            : 0
    Формат                                   : MPEG-4 Visual
    Профиль формата                          : Advanced Simple@L5
    Параметр BVOP формата                    : 2
    Параметр QPel формата                    : Нет
    Параметр GMC формата                     : Без точки перехода
    Параметр матрицы формата                 : Default (MPEG)
    Идентификатор кодека                     : XVID
    Идентификатор кодека/Подсказка           : XviD
    Продолжительность                        : 56 м.
    Битрейт                                  : 1500 Кбит/сек
    Ширина                                   : 720 пикселей
    Высота                                   : 400 пикселей
    Соотношение сторон                       : 16:9
    Частота кадров                           : 25,000 кадров/сек
    Цветовое пространство                    : YUV
    Субдискретизация насыщенности            : 4:2:0
    Битовая глубина                          : 8 бит
    Тип развёртки                            : Прогрессивная
    Метод сжатия                             : С потерями
    Бит/(Пиксели*Кадры)                      : 0.208
    Размер потока                            : 608 Мбайт (85%)
    Библиотека кодирования                   : XviD 73
    Аудио #1
    Идентификатор                            : 1
    Формат                                   : MPEG Audio
    Версия формата                           : Version 1
    Профиль формата                          : Layer 3
    Режим                                    : Joint stereo
    Расширение режима                        : MS Stereo
    Идентификатор кодека                     : 55
    Идентификатор кодека/Подсказка           : MP3
    Продолжительность                        : 56 м.
    Вид битрейта                             : Постоянный
    Битрейт                                  : 128 Кбит/сек
    Каналы                                   : 2 канала
    Частота                                  : 48,0 КГц
    Метод сжатия                             : С потерями
    Размер потока                            : 51,9 Мбайт (7%)
    Выравнивание                             : Соединение по промежуткам
    Продолжительность промежутка             : 40  мс. (1,00 видеокадр)
    Время предзагрузки промежутка            : 504  мс.
    Аудио #2
    Идентификатор                            : 2
    Формат                                   : MPEG Audio
    Версия формата                           : Version 1
    Профиль формата                          : Layer 3
    Режим                                    : Joint stereo
    Расширение режима                        : MS Stereo
    Идентификатор кодека                     : 55
    Идентификатор кодека/Подсказка           : MP3
    Продолжительность                        : 56 м.
    Вид битрейта                             : Постоянный
    Битрейт                                  : 128 Кбит/сек
    Каналы                                   : 2 канала
    Частота                                  : 48,0 КГц
    Метод сжатия                             : С потерями
    Размер потока                            : 51,9 Мбайт (7%)
    Выравнивание                             : Соединение по промежуткам
    Продолжительность промежутка             : 40  мс. (1,00 видеокадр)
    Время предзагрузки промежутка            : 504  мс.

    ✘ Скриншоты ✘

    -
    Скачать .torrent

    Скачать торрент-файл бесплатно и на максимальной скорости!

    Как скачивать? · Что такое торрент? · Рейтинг и ограничения

    !ВНИМАНИЕ!
    Сайт не распространяет и не хранит электронные версии произведений, а занимается лишь лишь предоставлением доступа к создаваемому пользователями каталогу ссылок на торрент-файлы, которые содержат только списки хеш-сумм, убедительная просьба с жалобами обращаться напрямую к пользователю. Файлы для обмена на трекере предоставлены пользователями сайта, и администрация не несёт ответственности за их содержание. Просьба не заливать файлы, защищенные авторскими правами, а также файлы нелегального содержания!


    _________________
    [Профиль] [ЛС]
    Показать сообщения:    
    Ответить на тему

    Текущее время: Сегодня, в 20:17

    Часовой пояс: GMT + 2



    Вы не можете начинать темы
    Вы не можете отвечать на сообщения
    Вы не можете редактировать свои сообщения
    Вы не можете удалять свои сообщения
    Вы не можете голосовать в опросах
    Вы не можете прикреплять файлы к сообщениям
    Вы не можете скачивать файлы