BitTorrentTracker PerecTracker.org
BitTorrentTracker PerecTracker.org
    
Регистрация  ·  Вход
 
 · 
Забыли пароль?

  • Выживший / The Revenant (Алехандро Гонсалес Иньярриту / Alejandro González Iñárritu) [2015, США, триллер, драма, приключения, вестерн, BDRip 1080p] Dub + VO (Дмитрий Есарев) + Sub Rus, Eng + Original Eng

    Ответить на тему
     
    Автор Сообщение

    Light

    Создавать темы 18-Апр-2016 01:13

           

    [Цитировать]

    -Выживший / The Revenant-Страна: США
    Студия: Anonymous Content, Appian Way, New Regency Pictures
    Жанр: триллер, драма, приключения, вестерн
    Год выпуска: 2015
    Продолжительность: 2:36:21-Перевод: Профессиональный (дублированный) Blu-ray NOR
    Перевод: Одноголосый закадровый Дмитрий Есарев
    Cубтитры: русские (форсированные и три варианта полных), украинские, английские (форсированные и обычные полные)
    Оригинальная аудиодорожка: английский-Режиссер: Алехандро Гонсалес Иньярриту / Alejandro González Iñárritu
    В ролях: Леонардо ДиКаприо, Том Харди, Донал Глисон, Уилл Поултер, Пол Андерсон, Лукас Хаас, Брэд Картер, Кристоффер Йонер, Брендан Флетчер, Хавьер Ботет, Кори Грим, Роберт Молони, Винсент Леклерк, Джошуа Бёрдж, МакКалеб Барнетт, Рэй Чейз, Тимоти Лайл, Эдриан Макморран, Дэйв Бурчилл, Майкл Виллар-Описание: Охотник Хью Гласс серьезно ранен на неизведанных просторах американского Дикого Запада. Товарищ Хью по отряду покорителей новых земель Джон Фицжеральд предательски оставляет его умирать в одиночестве. Теперь у Гласса осталось только одно оружие — его сила воли. Он готов бросить вызов первобытной природе, суровой зиме и враждебным племенам индейцев, только чтобы выжить и отомстить Фицжеральду.-Сэмпл-Тип релиза: BDRip 1080p
    Контейнер: MKV
    Видео: MPEG-4 AVC, 1920 x 804, 23.976 fps, ~12700 kbps
    Аудио: Russian: DTS Master Audio 5.1 / 48 kHz / 768 kbps |Дубляж|
    Аудио 2: Russian: DTS Master Audio 5.1 / 48 kHz / 1509 kbps |Дмитрий Есарев|
    Аудио 3: English: DTS Master Audio 5.1 / 48 kHz / 1509 kbps
    Аудио 3: Ukrainian: 48 kHz, AC3, 3/2 (L,C,R,l,r) + LFE ch, ~448.00 kbps avg |Дубляж|
    Формат субтитров: softsub (SRT)

    Видеоряд от VietHD

    .MOVIE iNFOGENRE.........: Adventure | Drama | ThrillerIMDB RATING...: 8.2/10 from 316.502 usersLINK..........:
    .RELEASE iNFORELEASE NAME..: The.Revenant.2015.1080p.BluRay.DTS.x264-VietHDRELEASE SIZE..: 15.5 GiBRUNTIME.......: 2h 36mnVIDEO CODEC...: x264, High@L4.1, crf=15.8FRAMERATE.....: 23.976 fpsBITRATE.......: 12.7 MbpsRESOLUTION....: 1920 x 804AUDIO.........: English DTS 5.1 @ 1510 KbpsCHAPTERS......: IncludedSUBTITLES.....: English, English SDH, English Forced, French, Portuguese, Spanish/(.srt)SOURCE........: 1080p Blu-ray AVC DTS-HD MA 7.1-BAKED (thanks dancingdemon)Encoder.......: VietDuc19@VietHDRelease Date:.: 10/04/2016
    .x264 iNFO
    x264 [info]: frame I:1147 Avg QP:12.52 size:258614x264 [info]: frame P:52813 Avg QP:14.38 size:126344x264 [info]: frame B:170968 Avg QP:16.30 size: 46424x264 [info]: consecutive B-frames: 1.9% 3.5% 7.4% 38.9% 14.8% 22.1% 4.7% 5.5% 1.2%
    encoded 224928 frames, 2.18 fps, 12711.30 kb/s

    MI

    GeneralUnique ID : 208420929361075203718581461418001543598 (0x9CCC69300B657F7996D7D3D6CCEBB1AE)Complete name : S:\На хранении\Выживший (2015. The Revenant) 1080p.mkvFormat : MatroskaFormat version : Version 4 / Version 2File size : 18.5 GiBDuration : 2h 36mnOverall bit rate : 16.9 MbpsMovie name : Release for RuTrackerEncoded date : UTC 2016-04-17 20:55:53Writing application : mkvmerge v9.0.1 ('Obstacles') 64bitWriting library : libebml v1.3.3 + libmatroska v1.4.4Cover : YesAttachments : cover.jpg
    VideoID : 1Format : AVCFormat/Info : Advanced Video CodecFormat profile : High@L4.1Format settings, CABAC : YesFormat settings, ReFrames : 5 framesCodec ID : V_MPEG4/ISO/AVCDuration : 2h 36mnBit rate : 12.7 MbpsWidth : 1 920 pixelsHeight : 804 pixelsDisplay aspect ratio : 2.40:1Frame rate mode : ConstantFrame rate : 23.976 (24000/1001) fpsColor space : YUVChroma subsampling : 4:2:0Bit depth : 8 bitsScan type : ProgressiveBits/(Pixel*Frame) : 0.343Stream size : 13.9 GiB (75%)Title : The.Revenant.2015.1080p.BluRay.DTS.x264-VietHDWriting library : x264 core 148 r2665 a01e339Encoding settings : cabac=1 / ref=5 / deblock=1:-3:-3 / analyse=0x3:0x133 / me=umh / subme=10 / psy=1 / psy_rd=1.05:0.00 / mixed_ref=1 / me_range=24 / chroma_me=1 / trellis=2 / 8x8dct=1 / cqm=0 / deadzone=21,11 / fast_pskip=1 / chroma_qp_offset=-2 / threads=12 / lookahead_threads=2 / sliced_threads=0 / nr=0 / decimate=1 / interlaced=0 / bluray_compat=0 / constrained_intra=0 / bframes=8 / b_pyramid=2 / b_adapt=2 / b_bias=0 / direct=3 / weightb=1 / open_gop=0 / weightp=2 / keyint=250 / keyint_min=23 / scenecut=40 / intra_refresh=0 / rc=crf / mbtree=0 / crf=15.8 / qcomp=0.65 / qpmin=0 / qpmax=69 / qpstep=4 / ip_ratio=1.40 / pb_ratio=1.30 / aq=3:0.85 / zones=0,25,crf=15/484,608,crf=15/643,995,crf=15/1001,1765,crf=15/2828,3277,crf=15/3552,3669,crf=15/4152,4613,crf=15/4716,5148,crf=15/5649,5711,crf=15/5884,5993,crf=15/5996,6139,crf=15/6257,6417,crf=15/6421,6454,crf=15/7665,7716,crf=15/7957,8069,crf=15/8074,8120,crf=15/8293,8429,crf=15/9080,9174,crf=15/9661,9707,crf=15/11254,11517,crf=15/11782,11846,crf=15/12372,12411,crf=15/14731,14765,crf=15/14815,14865,crf=15/15853,15879,crf=15/16250,16303,crf=15/18807,18932,crf=15/19275,19664,crf=15/19738,19767,crf=15/19793,20400,crf=15/20415,20445,crf=15/20543,20844,crf=15/20910,21037,crf=15/21102,21130,crf=15/21222,21351,crf=15/21365,21441,crf=15/21751,21833,crf=15/21852,21898,crf=15/21996,22068,crf=15/22268,22373,crf=15/26442,26470,crf=15/27520,29969,crf=15/30466,31874,crf=15/31884,33094,crf=15/33661,35679,crf=15/35689,35811,crf=15/35884,36234,crf=15/36295,36864,crf=15/37016,37762,crf=15/37793,37865,crf=15/37904,38458,crf=15/38558,38948,crf=15/38995,40855,crf=15/40867,42155,crf=15/42252,42337,crf=15/42512,43453,crf=15/43482,43922,crf=15/44328,44359,crf=15/44398,44596,crf=15/44683,44795,crf=15/44930,46439,crf=15/46504,46569,crf=15/46738,46984,crf=15/46999,47320,crf=15/47323,47586,crf=15/47588,49048,crf=15/49052,49158,crf=15/49190,49519,crf=15/49643,50124,crf=15/50187,50251,crf=15/50272,50366,crf=15/50368,50465,crf=15/50513,50559,crf=15/50732,51234,crf=15/51264,51650,crf=15/52678,52717,crf=15/52756,52783,crf=15/52801,52827,crf=15/54188,54221,crf=15/54331,54411,crf=15/54417,54489,crf=15/57297,58265,crf=15/58906,58969,crf=15/59713,60409,crf=15/60831,60930,crf=15/62924,62956,crf=15/65570,65656,crf=15/65708,66128,crf=15/66156,66213,crf=15/66612,66654,crf=15/66764,66794,crf=15/67610,67649,crf=15/69125,70006,crf=15/70216,71003,crf=15/71137,71958,crf=15/71962,72340,crf=15/72350,72387,crf=15/72391,72426,crf=15/72455,72616,crf=15/72619,73266,crf=15/73290,73599,crf=15/73804,74379,crf=15/76059,76636,crf=15/76666,76794,crf=15/77828,77897,crf=15/78124,78312,crf=15/78888,78926,crf=15/79416,79441,crf=15/79738,79778,crf=15/80142,80218,crf=15/80226,80409,crf=15/82727,82762,crf=15/83832,83954,crf=15/85624,85678,crf=15/85684,85767,crf=15/85803,85852,crf=15/86294,86367,crf=15/87906,88036,crf=15/92341,92474,crf=15/94184,94213,crf=15/94252,94314,crf=15/94998,95035,crf=15/95489,95517,crf=15/95523,95573,crf=15/97727,98050,crf=15/98179,98278,crf=15/99538,99699,crf=15/100662,100698,crf=15/100704,100778,crf=15/100934,101338,crf=15/101456,101502,crf=15/101768,101814,crf=15/101965,102023,crf=15/102287,102334,crf=15/102908,103044,crf=15/104814,104849,crf=15/104869,104958,crf=15/107640,107919,crf=15/109214,109238,crf=15/109382,110786,crf=15/110791,110820,crf=15/110839,113049,crf=15/113149,113247,crf=15/113394,113532,crf=15/114112,114223,crf=15/114322,114387,crf=15/114403,115290,crf=15/118541,118574,crf=15/119913,122262,crf=15/122330,122761,crf=15/122833,123406,crf=15/123705,123785,crf=15/123788,124053,crf=15/124178,124227,crf=15/124229,124709,crf=15/127726,128019,crf=15/130885,130969,crf=15/132030,132371,crf=15/132458,132497,crf=15/132691,132841,crf=15/133145,133213,crf=15/138822,138977,crf=15/139152,139209,crf=15/139482,140022,crf=15/140125,140183,crf=15/140197,140408,crf=15/140970,141082,crf=15/141085,141133,crf=15/141698,141794,crf=15/141999,142326,crf=15/143235,143615,crf=15/146844,147566,crf=15/147677,148020,crf=15/148062,148670,crf=15/148683,148981,crf=15/149249,150110,crf=15/150176,150520,crf=15/150523,150723,crf=15/150749,150824,crf=15/150922,150948,crf=15/150963,151084,crf=15/151359,151593,crf=15/151596,151708,crf=15/151729,151771,crf=15/152046,155288,crf=15/155928,156055,crf=15/156122,156362,crf=15/156431,156542,crf=15/159604,159632,crf=15/159651,159823,crf=15/159829,159874,crf=15/162768,163022,crf=15/166857,167011,crf=15/167334,167359,crf=15/167379,167409,crf=15/168258,168903,crf=15/169206,169370,crf=15/169595,169907,crf=15/169977,170002,crf=15/170716,172592,crf=15/173060,173255,crf=15/173263,173336,crf=15/173616,173652,crf=15/173704,173764,crf=15/173776,173819,crf=15/173908,173961,crf=15/174011,174081,crf=15/174572,174699,crf=15/174786,174833,crf=15/174857,174881,crf=15/174925,174949,crf=15/175012,175092,crf=15/175197,175244,crf=15/177353,177683,crf=15/177786,177972,crf=15/178066,178638,crf=15/179552,179732,crf=15/179914,180769,crf=15/180946,181010,crf=15/181043,181499,crf=15/183308,184218,crf=15/186278,186305,crf=15/201329,201354,crf=15/201705,201740,crf=15/201750,201797,crf=15/201803,201837,crf=15/201843,201874,crf=15/201976,202010,crf=15/202018,202101,crf=15/202872,202917,crf=15/202981,203054,crf=15/203552,203822,crf=15/204232,204317,crf=15/204388,204412,crf=15/206001,206087,crf=15/210409,224927,crf=15Language : EnglishDefault : YesForced : NoColor range : LimitedMatrix coefficients : BT.709
    Audio #1ID : 2Format : DTSFormat/Info : Digital Theater SystemsMode : 16Format settings, Endianness : BigCodec ID : A_DTSDuration : 2h 36mnBit rate mode : ConstantBit rate : 768 KbpsChannel(s) : 6 channelsChannel positions : Front: L C R, Side: L R, LFESampling rate : 48.0 KHzFrame rate : 93.750 fps (512 spf)Bit depth : 24 bitsCompression mode : LossyStream size : 859 MiB (5%)Title : ДубляжLanguage : RussianDefault : YesForced : No
    Audio #2ID : 3Format : DTSFormat/Info : Digital Theater SystemsMode : 16Format settings, Endianness : BigCodec ID : A_DTSDuration : 2h 36mnBit rate mode : ConstantBit rate : 1 509 KbpsChannel(s) : 6 channelsChannel positions : Front: L C R, Side: L R, LFESampling rate : 48.0 KHzFrame rate : 93.750 fps (512 spf)Bit depth : 24 bitsCompression mode : LossyStream size : 1.65 GiB (9%)Title : Дмитрий ЕсаревLanguage : RussianDefault : NoForced : No
    Audio #3ID : 4Format : DTSFormat/Info : Digital Theater SystemsMode : 16Format settings, Endianness : BigCodec ID : A_DTSDuration : 2h 36mnBit rate mode : ConstantBit rate : 1 509 KbpsChannel(s) : 6 channelsChannel positions : Front: L C R, Side: L R, LFESampling rate : 48.0 KHzFrame rate : 93.750 fps (512 spf)Bit depth : 24 bitsCompression mode : LossyStream size : 1.65 GiB (9%)Language : EnglishDefault : NoForced : No
    Audio #4ID : 5Format : AC-3Format/Info : Audio Coding 3Mode extension : CM (complete main)Format settings, Endianness : BigCodec ID : A_AC3Duration : 2h 36mnBit rate mode : ConstantBit rate : 448 KbpsChannel(s) : 6 channelsChannel positions : Front: L C R, Side: L R, LFESampling rate : 48.0 KHzFrame rate : 31.250 fps (1536 spf)Compression mode : LossyStream size : 501 MiB (3%)Title : ДубляжLanguage : UkrainianDefault : NoForced : No
    Text #1ID : 6Format : UTF-8Codec ID : S_TEXT/UTF8Codec ID/Info : UTF-8 Plain TextDuration : 2h 35mnBit rate : 5 bpsCount of elements : 146Stream size : 6.05 KiB (0%)Title : forcedLanguage : RussianDefault : YesForced : No
    Text #2ID : 7Format : UTF-8Codec ID : S_TEXT/UTF8Codec ID/Info : UTF-8 Plain TextDuration : 2h 35mnBit rate : 37 bpsCount of elements : 847Stream size : 43.0 KiB (0%)Title : v1Language : RussianDefault : NoForced : No
    Text #3ID : 8Format : UTF-8Codec ID : S_TEXT/UTF8Codec ID/Info : UTF-8 Plain TextDuration : 2h 20mnBit rate : 48 bpsCount of elements : 974Stream size : 49.7 KiB (0%)Title : v2Language : RussianDefault : NoForced : No
    Text #4ID : 9Format : UTF-8Codec ID : S_TEXT/UTF8Codec ID/Info : UTF-8 Plain TextDuration : 2h 25mnBit rate : 45 bpsCount of elements : 974Stream size : 48.9 KiB (0%)Title : v3Language : RussianDefault : NoForced : No
    Text #5ID : 10Format : UTF-8Codec ID : S_TEXT/UTF8Codec ID/Info : UTF-8 Plain TextDuration : 2h 35mnBit rate : 3 bpsCount of elements : 135Stream size : 3.56 KiB (0%)Title : ForcedLanguage : EnglishDefault : NoForced : No
    Text #6ID : 11Format : UTF-8Codec ID : S_TEXT/UTF8Codec ID/Info : UTF-8 Plain TextDuration : 2h 35mnBit rate : 23 bpsCount of elements : 834Stream size : 26.6 KiB (0%)Language : EnglishDefault : NoForced : No
    Text #7ID : 12Format : UTF-8Codec ID : S_TEXT/UTF8Codec ID/Info : UTF-8 Plain TextDuration : 2h 25mnBit rate : 30 bpsCount of elements : 1231Stream size : 32.4 KiB (0%)Title : SDHLanguage : EnglishDefault : NoForced : No
    Text #8ID : 13Format : UTF-8Codec ID : S_TEXT/UTF8Codec ID/Info : UTF-8 Plain TextDuration : 2h 27mnBit rate : 42 bpsCount of elements : 1274Stream size : 45.5 KiB (0%)Title : SDH-COLOREDLanguage : EnglishDefault : NoForced : No
    Menu00:00:00.000 : en:Chapter 100:05:04.846 : en:Chapter 200:07:58.311 : en:Chapter 300:13:18.965 : en:Chapter 400:21:10.686 : en:Chapter 500:28:21.658 : en:Chapter 600:37:07.767 : en:Chapter 700:44:00.346 : en:Chapter 800:48:14.975 : en:Chapter 900:51:42.266 : en:Chapter 1000:56:51.033 : en:Chapter 1100:59:50.754 : en:Chapter 1201:03:31.766 : en:Chapter 1301:11:52.433 : en:Chapter 1401:16:36.133 : en:Chapter 1501:21:22.377 : en:Chapter 1601:28:31.139 : en:Chapter 1701:37:29.969 : en:Chapter 1801:48:44.643 : en:Chapter 1901:53:08.782 : en:Chapter 2001:59:05.930 : en:Chapter 2102:02:56.703 : en:Chapter 2202:15:45.262 : en:Chapter 2302:22:51.021 : en:Chapter 24
    Скриншоты

    Зеркало


    Цитата:
    Цитата:

    • Перевод доступен благодаря: mv73, shandorra, Прохожий, napaHouk, fatalflaw, Wa1ker, sa1992, igrok2012, Loki1982, Антиквар, DREADG, kidman644, shagrath88, Shrooms, Start.Point, Mexicana, ZeDOK, Star Dogshurikkein, pustov, ivan_aka_flint, Gambler, J. Green, Artemii, Eko. Работа со звуком Переводман
    • Сохранены оригинальные главы.
    • За дубляж и субтитры спасибо HDClub.
    Скачать .torrent

    Скачать торрент-файл бесплатно и на максимальной скорости!

    Как скачивать? · Что такое торрент? · Рейтинг и ограничения

    !ВНИМАНИЕ!
    Сайт не распространяет и не хранит электронные версии произведений, а занимается лишь лишь предоставлением доступа к создаваемому пользователями каталогу ссылок на торрент-файлы, которые содержат только списки хеш-сумм, убедительная просьба с жалобами обращаться напрямую к пользователю. Файлы для обмена на трекере предоставлены пользователями сайта, и администрация не несёт ответственности за их содержание. Просьба не заливать файлы, защищенные авторскими правами, а также файлы нелегального содержания!


    _________________
    [Профиль] [ЛС]
    Показать сообщения:    
    Ответить на тему

    Текущее время: Сегодня, в 09:53

    Часовой пояс: GMT + 2



    Вы не можете начинать темы
    Вы не можете отвечать на сообщения
    Вы не можете редактировать свои сообщения
    Вы не можете удалять свои сообщения
    Вы не можете голосовать в опросах
    Вы не можете прикреплять файлы к сообщениям
    Вы не можете скачивать файлы