BitTorrentTracker PerecTracker.org
BitTorrentTracker PerecTracker.org
    
Регистрация  ·  Вход
 
 · 
Забыли пароль?

  • Музей восковых фигур / Waxwork (Энтони Хикокс / Anthony Hickox) [1988, США, ужасы, комедия, HDTV 1080i] MVO + 4x AVO + VO + Original Eng

    Ответить на тему
     
    Автор Сообщение

    Light

    Создавать темы 17-Апр-2016 21:01

           

    [Цитировать]

    Музей восковых фигур / Waxwork
    Страна: США
    Студия: Vestron Pictures Ltd Contemporary Films Electric Pictures HB Filmrullen
    Жанр: ужасы, комедия
    Год выпуска: 1988
    Продолжительность: 01:37:11
    Перевод 1: Профессиональный (многоголосый закадровый)
    Перевод 2: Авторский (одноголосый закадровый) (Горчаков)
    Перевод 3: Авторский (одноголосый закадровый) (Гаврилов)
    Перевод 4: Авторский (одноголосый закадровый) (Иванов)
    Перевод 5: Одноголосый закадровый (Огородников)
    Перевод 6: Авторский (одноголосый закадровый) (Дольский)
    Cубтитры: нет
    Оригинальная аудиодорожка: английский
    Режиссер: Энтони Хикокс / Anthony Hickox
    В ролях: Зэк Гэллиган , Дебора Формен , Мишель Джонсон , Дэна Эшбрук , Майлз О`Киффи , Charles McCaughan , Дж. Кеннет Кэмпбелл , Джон Рис-Дэвис , Патрик Макни , Дэвид Уорнер
    Описание: Неизвестно откуда в городе появляется музей восковых фигур, в котором собраны самые страшные монстры в истории мистики Дракула, маркиз Де Сад, Призрак оперы, Франкейштейн и многие другие. Зловещий хранитель музея приглашает группу школьников, модерновых припанкованных подростков, на презентацию открытия музея, которая должна состояться ровно в полночь.
    Придя в музей, они обнаруживают «неполноценность» коллекции — некоторым восковым миниатюрам (а это, как правило, сценки из жизни не самых приятных исторических персонажей типа маркиза Де Сада или графа Дракулы) не хватает героев… В смысле — жертв… А в городе, между тем, пропадают люди…
    Сэмпл: http://multi-up.com/1097655
    Тип релиза: HDTV 1080i
    Контейнер: MKV
    Аудио кодек: AC3

    Видео: MPEG2, 1280x1080@1920x1080, 29.970 fps, 13958 kbps
    Аудио: Русский, AC3 1.0 128 Kbps 48,0 КГц (Многоголосый)
    Аудио 2: Русский, AC3 1.0 128 Kbps 48,0 КГц (Горчаков)
    Аудио 3: Русский, AC3 2.0 192 Kbps 48,0 КГц (Гаврилов)
    Аудио 4: Русский, AC3 2.0 192 Kbps 48,0 КГц (Иванов)
    Аудио 5: Русский, AC3 2.0 192 Kbps 48,0 КГц (Огородников)
    Аудио 6: Русский, AC3 1.0 128 Kbps 48,0 КГц (Дольский)
    Аудио 7: English, AC3 5.1 384 Kbps 48,0 КГц (Оригинал)

    MediaInfo

    General
    Unique ID : 186230077140215055438204162401617727558 (0x8C1A9BB3B720AF98842B6A74F1625046)
    Complete name : C:\Users\Музей восковых фигур-1988 HDTVRip 1080p.mkv
    Format : Matroska
    Format version : Version 4 / Version 2
    File size : 10.4 GiB
    Duration : 1h 37mn
    Overall bit rate mode : Variable
    Overall bit rate : 15.3 Mbps
    Movie name : Waxwork.1988.1080i HDTV by Helljahve
    Encoded date : UTC 2016-04-07 00:35:04
    Writing application : mkvmerge v9.0.1 ('Obstacles') 64bit
    Writing library : libebml v1.3.3 + libmatroska v1.4.4
    Video
    ID : 1
    Format : MPEG Video
    Format version : Version 2
    Format profile : Main@High
    Format settings, BVOP : Yes
    Format settings, Matrix : Custom
    Format settings, GOP : M=3, N=30
    Codec ID : V_MPEG2
    Codec ID/Info : MPEG 1 or 2 Video
    Duration : 1h 37mn
    Bit rate mode : Variable
    Bit rate : 14.0 Mbps
    Maximum bit rate : 65.0 Mbps
    Width : 1 280 pixels
    Height : 1 080 pixels
    Display aspect ratio : 16:9
    Frame rate mode : Variable
    Frame rate : 24.744 fps
    Original frame rate : 29.970 (30000/1001) fps
    Color space : YUV
    Chroma subsampling : 4:2:0
    Bit depth : 8 bits
    Compression mode : Lossy
    Bits/(Pixel*Frame) : 0.408
    Time code of first frame : 00:00:00;00
    Time code source : Group of pictures header
    GOP, Open/Closed : Open
    GOP, Open/Closed of first f : Closed
    Stream size : 9.48 GiB (91%)
    Default : Yes
    Forced : No
    Audio #1
    ID : 2
    Format : AC-3
    Format/Info : Audio Coding 3
    Mode extension : CM (complete main)
    Format settings, Endianness : Big
    Codec ID : A_AC3
    Duration : 1h 37mn
    Bit rate mode : Constant
    Bit rate : 128 Kbps
    Channel(s) : 1 channel
    Channel positions : Front: C
    Sampling rate : 48.0 KHz
    Frame rate : 31.250 fps (1536 spf)
    Compression mode : Lossy
    Stream size : 88.8 MiB (1%)
    Title : Профессиональный (многоголосый, закадровый)
    Language : Russian
    Default : Yes
    Forced : No
    Audio #2
    ID : 3
    Format : AC-3
    Format/Info : Audio Coding 3
    Mode extension : CM (complete main)
    Format settings, Endianness : Big
    Codec ID : A_AC3
    Duration : 1h 36mn
    Bit rate mode : Constant
    Bit rate : 128 Kbps
    Channel(s) : 1 channel
    Channel positions : Front: C
    Sampling rate : 48.0 KHz
    Frame rate : 31.250 fps (1536 spf)
    Compression mode : Lossy
    Stream size : 88.8 MiB (1%)
    Title : Авторский (одноголосый закадровый)(Горчаков)
    Language : Russian
    Default : No
    Forced : No
    Audio #3
    ID : 4
    Format : AC-3
    Format/Info : Audio Coding 3
    Mode extension : CM (complete main)
    Format settings, Endianness : Big
    Codec ID : A_AC3
    Duration : 1h 36mn
    Bit rate mode : Constant
    Bit rate : 192 Kbps
    Channel(s) : 2 channels
    Channel positions : Front: L R
    Sampling rate : 48.0 KHz
    Frame rate : 31.250 fps (1536 spf)
    Compression mode : Lossy
    Stream size : 133 MiB (1%)
    Title : Авторский (одноголосый закадровый)(Гаврилов)
    Language : Russian
    Default : No
    Forced : No
    Audio #4
    ID : 5
    Format : AC-3
    Format/Info : Audio Coding 3
    Mode extension : CM (complete main)
    Format settings, Endianness : Big
    Codec ID : A_AC3
    Duration : 1h 36mn
    Bit rate mode : Constant
    Bit rate : 192 Kbps
    Channel(s) : 2 channels
    Channel positions : Front: L R
    Sampling rate : 48.0 KHz
    Frame rate : 31.250 fps (1536 spf)
    Compression mode : Lossy
    Stream size : 133 MiB (1%)
    Title : Авторский (одноголосый закадровый)(Иванов)
    Language : Russian
    Default : No
    Forced : No
    Audio #5
    ID : 6
    Format : AC-3
    Format/Info : Audio Coding 3
    Mode extension : CM (complete main)
    Format settings, Endianness : Big
    Codec ID : A_AC3
    Duration : 1h 36mn
    Bit rate mode : Constant
    Bit rate : 192 Kbps
    Channel(s) : 2 channels
    Channel positions : Front: L R
    Sampling rate : 48.0 KHz
    Frame rate : 31.250 fps (1536 spf)
    Compression mode : Lossy
    Stream size : 133 MiB (1%)
    Title : Авторский (одноголосый, закадровый)(Огородников)
    Language : Russian
    Default : No
    Forced : No
    Audio #6
    ID : 7
    Format : AC-3
    Format/Info : Audio Coding 3
    Mode extension : CM (complete main)
    Format settings, Endianness : Big
    Codec ID : A_AC3
    Duration : 1h 36mn
    Bit rate mode : Constant
    Bit rate : 128 Kbps
    Channel(s) : 1 channel
    Channel positions : Front: C
    Sampling rate : 48.0 KHz
    Frame rate : 31.250 fps (1536 spf)
    Compression mode : Lossy
    Stream size : 88.8 MiB (1%)
    Title : Авторский (одноголосый закадровый)(Дольский)
    Language : Russian
    Default : No
    Forced : No
    Audio #7
    ID : 8
    Format : AC-3
    Format/Info : Audio Coding 3
    Mode extension : CM (complete main)
    Format settings, Endianness : Big
    Codec ID : A_AC3
    Duration : 1h 37mn
    Bit rate mode : Constant
    Bit rate : 384 Kbps
    Channel(s) : 6 channels
    Channel positions : Front: L C R, Side: L R, LFE
    Sampling rate : 48.0 KHz
    Frame rate : 31.250 fps (1536 spf)
    Compression mode : Lossy
    Stream size : 267 MiB (3%)
    Title : English
    Language : English
    Default : No
    Forced : No

    Скриншоты


    Скачать .torrent

    Скачать торрент-файл бесплатно и на максимальной скорости!

    Как скачивать? · Что такое торрент? · Рейтинг и ограничения

    !ВНИМАНИЕ!
    Сайт не распространяет и не хранит электронные версии произведений, а занимается лишь лишь предоставлением доступа к создаваемому пользователями каталогу ссылок на торрент-файлы, которые содержат только списки хеш-сумм, убедительная просьба с жалобами обращаться напрямую к пользователю. Файлы для обмена на трекере предоставлены пользователями сайта, и администрация не несёт ответственности за их содержание. Просьба не заливать файлы, защищенные авторскими правами, а также файлы нелегального содержания!


    _________________
    [Профиль] [ЛС]
    Показать сообщения:    
    Ответить на тему

    Текущее время: Сегодня, в 10:45

    Часовой пояс: GMT + 2



    Вы не можете начинать темы
    Вы не можете отвечать на сообщения
    Вы не можете редактировать свои сообщения
    Вы не можете удалять свои сообщения
    Вы не можете голосовать в опросах
    Вы не можете прикреплять файлы к сообщениям
    Вы не можете скачивать файлы