BitTorrentTracker PerecTracker.org
BitTorrentTracker PerecTracker.org
    
Регистрация  ·  Вход
 
 · 
Забыли пароль?

  • Виль-Мари / Ville-Marie (Ги Эдуа / Guy Édoin) [2015, Канада, Драма, DVDRip] VO (Илья Бехтер) + Original Fre

    Ответить на тему
     
    Автор Сообщение

    Light

    Создавать темы 17-Апр-2016 16:49

           

    [Цитировать]

    Виль-Мари / Ville-Marie
    Страна: Канада
    Жанр: Драма
    Год выпуска: 2015
    Продолжительность: 01:39:56
    Перевод: Одноголосый закадровый Илья Бехтер
    Cубтитры: нет
    Оригинальная аудиодорожка: французский
    Режиссер: Ги Эдуа / Guy Édoin
    В ролях: Моника Беллуччи, Паскаль Бюссьер, Алеша Шнайдер, Патрик Хивон, Луис Шампейн, Фридерик Жиль, Стефани Лаббе, Сандрин Биссон, Натали Гаскон
    Описание: Французская актриса Софи пытается наладить отношения с сыном, который хочет выяснить, кто же является его биологическим отцом. После неожиданных роковых событий судьба сводит их с медсестрой и работником отделения «скорой помощи», и теперь их жизни изменятся навсегда.
    Сэмпл: http://multi-up.com/1097807
    Качество видео: DVDRip
    Формат видео: AVI
    Видео: 720x304 (2.35:1); 23,976 fps ; DivX; 1751 kbps avg
    Аудио: АС-3 ; 2Сh, 48.0 KHz, 128 кб/с (русский)
    Аудио 2: АС-3 ; 2Сh, 48.0 KHz, 192 кб/с (французский)

    http://www.kinopoisk.ru/name/1427094/

    MediaInfo

    Format : AVI
    Format/Info : Audio Video Interleave
    File size : 1.46 GiB
    Duration : 1h 39mn
    Overall bit rate : 2 086 Kbps
    Movie name : Ville-Marie_2015.DVDRip
    Writing application : VirtualDubMod 1.6.0.0 SURROUND (build 2560/release)
    Video
    ID : 0
    Format : MPEG-4 Visual
    Format settings, BVOP : Yes
    Format settings, QPel : No
    Format settings, GMC : No warppoints
    Format settings, Matrix : Default (H.263)
    Codec ID : DX50
    Codec ID/Hint : DivX 5
    Duration : 1h 39mn
    Bit rate : 1 751 Kbps
    Width : 720 pixels
    Height : 304 pixels
    Display aspect ratio : 2.35:1
    Frame rate : 23.976 fps
    Color space : YUV
    Chroma subsampling : 4:2:0
    Bit depth : 8 bits
    Scan type : Progressive
    Compression mode : Lossy
    Bits/(Pixel*Frame) : 0.334
    Stream size : 1.22 GiB (84%)
    Writing library : DivX 6.8.5 (UTC 2009-08-20)
    Audio #1
    ID : 1
    Format : AC-3
    Format/Info : Audio Coding 3
    Mode extension : CM (complete main)
    Format settings, Endianness : Big
    Codec ID : 2000
    Duration : 1h 39mn
    Bit rate mode : Constant
    Bit rate : 128 Kbps
    Channel(s) : 2 channels
    Channel positions : Front: L R
    Sampling rate : 48.0 KHz
    Frame rate : 31.250 fps (1536 spf)
    Compression mode : Lossy
    Delay relative to video : 24ms
    Stream size : 91.5 MiB (6%)
    Alignment : Split accross interleaves
    Interleave, duration : 42 ms (1.00 video frame)
    Interleave, preload duration : 500 ms
    Audio #2
    ID : 2
    Format : AC-3
    Format/Info : Audio Coding 3
    Mode extension : CM (complete main)
    Format settings, Endianness : Big
    Codec ID : 2000
    Duration : 1h 39mn
    Bit rate mode : Constant
    Bit rate : 192 Kbps
    Channel(s) : 2 channels
    Channel positions : Front: L R
    Sampling rate : 48.0 KHz
    Frame rate : 31.250 fps (1536 spf)
    Compression mode : Lossy
    Delay relative to video : 150ms
    Stream size : 137 MiB (9%)
    Alignment : Split accross interleaves
    Interleave, duration : 42 ms (1.00 video frame)
    Interleave, preload duration : 500 ms

    Скриншот c названием фильма

    Скриншоты







    Скачать .torrent

    Скачать торрент-файл бесплатно и на максимальной скорости!

    Как скачивать? · Что такое торрент? · Рейтинг и ограничения

    !ВНИМАНИЕ!
    Сайт не распространяет и не хранит электронные версии произведений, а занимается лишь лишь предоставлением доступа к создаваемому пользователями каталогу ссылок на торрент-файлы, которые содержат только списки хеш-сумм, убедительная просьба с жалобами обращаться напрямую к пользователю. Файлы для обмена на трекере предоставлены пользователями сайта, и администрация не несёт ответственности за их содержание. Просьба не заливать файлы, защищенные авторскими правами, а также файлы нелегального содержания!


    _________________
    [Профиль] [ЛС]
    Показать сообщения:    
    Ответить на тему

    Текущее время: Сегодня, в 18:02

    Часовой пояс: GMT + 2



    Вы не можете начинать темы
    Вы не можете отвечать на сообщения
    Вы не можете редактировать свои сообщения
    Вы не можете удалять свои сообщения
    Вы не можете голосовать в опросах
    Вы не можете прикреплять файлы к сообщениям
    Вы не можете скачивать файлы