BitTorrentTracker PerecTracker.org
BitTorrentTracker PerecTracker.org
    
Регистрация  ·  Вход
 
 · 
Забыли пароль?

  • Выживший / The Revenant (Алехандро Гонсалес Иньярриту / Alejandro Gonzalez Inarritu) [2015, США, триллер, драма, приключения, вестерн, BDRip-AVC] Dub + Original + Sub (rus, eng)

    Ответить на тему
     
    Автор Сообщение

    Light

    Создавать темы 17-Апр-2016 12:37

           

    [Цитировать]

    Выживший / The Revenant«До последней капли крови»-Страна: США
    Жанр: триллер, драма, приключения, вестерн
    Год выпуска: 2015
    Продолжительность: 02:36:21
    Перевод: Профессиональный (полное дублирование) (BD EUR)
    Оригинальная аудиодорожка: английский
    Cубтитры: русские (форс., полные), английские (форс., полные, SDH)
    Навигация по главам: есть
    Режиссёр: Алехандро Гонсалес Иньярриту / Alejandro Gonzalez Inarritu
    В ролях: Леонардо ДиКаприо, Том Харди, Донал Глисон, Уилл Поултер, Пол Андерсон, Лукас Хаас, Брэд Картер, Кристоффер Йонер, Брендан Флетчер, Хавьер Ботет, Кори Грим, Роберт Молони, Винсент Леклерк, Джошуа Бёрдж, МакКалеб Барнетт, Рэй Чейз, Тимоти Лайл, Эдриан Макморран, Дэйв Бурчилл, Майкл Виллар
    Описание: Охотник Хью Гласс серьезно ранен на неизведанных просторах американского Дикого Запада. Товарищ Хью по отряду покорителей новых земель Джон Фицжеральд предательски оставляет его умирать в одиночестве. Теперь у Гласса осталось только одно оружие — его сила воли. Он готов бросить вызов первобытной природе, суровой зиме и враждебным племенам индейцев, только чтобы выжить и отомстить Фицжеральду.

    Качество видео: BDRip-AVC (исходник - BDRemux|THE_REVENANT_REMUX_HDCLUB)
    Формат видео: MKV
    Видео: x264, 1152x480 (2.40:1), 23,976 fps, ~2957 kbps, 0.223 bit/pixel
    Аудио 1: 48 kHz, AC3 Dolby Digital, 3/2 (L,C,R,l,r) + LFE ch, ~448 kbps [русский]
    Аудио 2: 48 kHz, AC3 Dolby Digital, 3/2 (L,C,R,l,r) + LFE ch, ~448 kbps [английский]
    Формат субтитров: softsub (SRT)
    MediaInfo | x264 log
    Format : Matroska
    Format version : Version 4 / Version 2
    File size : 4.31 GiB
    Duration : 2h 36mn
    Overall bit rate : 3 931 Kbps
    Movie name : Выживший / The Revenant (2015) :: AFM ::
    Encoded date : UTC 2016-04-17 08:24:49
    Writing application : mkvmerge v8.3.0 ('Over the Horizon') 32bit
    Writing library : libebml v1.3.1 + libmatroska v1.4.2
    Video
    ID : 1
    Format : AVC
    Format/Info : Advanced Video Codec
    Format profile : High@L4.1
    Format settings, CABAC : Yes
    Format settings, ReFrames : 11 frames
    Codec ID : V_MPEG4/ISO/AVC
    Duration : 2h 36mn
    Bit rate : 2 957 Kbps
    Width : 1 152 pixels
    Height : 480 pixels
    Display aspect ratio : 2.40:1
    Frame rate mode : Constant
    Frame rate : 23.976 fps
    Color space : YUV
    Chroma subsampling : 4:2:0
    Bit depth : 8 bits
    Scan type : Progressive
    Bits/(Pixel*Frame) : 0.223
    Stream size : 3.24 GiB (75%)
    Title : BDRip by AFM [RuTracker.org]
    Writing library : x264 core 148 r2665+53 6629127 t_mod_Custom [8-bit@all X86_64]
    Encoding settings : cabac=1 / ref=11 / deblock=1:-3:-2 / analyse=0x3:0x113 / me=umh / subme=11 / psy=1 / fade_compensate=0.00 / psy_rd=1.00:0.00 / mixed_ref=1 / me_range=32 / chroma_me=1 / trellis=2 / 8x8dct=1 / cqm=0 / deadzone=21,11 / fast_pskip=0 / chroma_qp_offset=-2 / threads=6 / lookahead_threads=1 / sliced_threads=0 / nr=0 / decimate=1 / interlaced=0 / bluray_compat=0 / constrained_intra=0 / fgo=0 / bframes=14 / b_pyramid=2 / b_adapt=2 / b_bias=0 / direct=1 / weightb=1 / open_gop=0 / weightp=2 / keyint=250 / keyint_min=23 / scenecut=40 / intra_refresh=0 / rc_lookahead=40 / rc=crf / mbtree=0 / crf=17.2000 / qcomp=0.65 / qpmin=0:0:0 / qpmax=69:69:69 / qpstep=4 / vbv_maxrate=50000 / vbv_bufsize=62500 / crf_max=0.0 / nal_hrd=none / filler=0 / ip_ratio=1.25 / pb_ratio=1.20 / aq=3:0.80 / aq-sensitivity=10.00 / aq-factor=1.00:1.00:1.00 / aq2=0 / aq3=0 / zones=210615,224927,q=27
    Language : English
    Default : Yes
    Forced : No
    Audio #1
    ID : 2
    Format : AC-3
    Format/Info : Audio Coding 3
    Mode extension : CM (complete main)
    Format settings, Endianness : Big
    Codec ID : A_AC3
    Duration : 2h 36mn
    Bit rate mode : Constant
    Bit rate : 448 Kbps
    Channel(s) : 6 channels
    Channel positions : Front: L C R, Side: L R, LFE
    Sampling rate : 48.0 KHz
    Compression mode : Lossy
    Stream size : 503 MiB (11%)
    Title : Dub, AC3 5.1 ~448 kbps
    Language : Russian
    Default : Yes
    Forced : No
    Audio #2
    ID : 3
    Format : AC-3
    Format/Info : Audio Coding 3
    Mode extension : CM (complete main)
    Format settings, Endianness : Big
    Codec ID : A_AC3
    Duration : 2h 36mn
    Bit rate mode : Constant
    Bit rate : 448 Kbps
    Channel(s) : 6 channels
    Channel positions : Front: L C R, Side: L R, LFE
    Sampling rate : 48.0 KHz
    Compression mode : Lossy
    Stream size : 503 MiB (11%)
    Title : Original, AC3 5.1 ~448 kbps
    Language : English
    Default : No
    Forced : No
    Text #1
    ID : 4
    Format : UTF-8
    Codec ID : S_TEXT/UTF8
    Codec ID/Info : UTF-8 Plain Text
    Title : forced
    Language : Russian
    Default : Yes
    Forced : No
    Text #2
    ID : 5
    Format : UTF-8
    Codec ID : S_TEXT/UTF8
    Codec ID/Info : UTF-8 Plain Text
    Title : full
    Language : Russian
    Default : No
    Forced : No
    Text #3
    ID : 6
    Format : UTF-8
    Codec ID : S_TEXT/UTF8
    Codec ID/Info : UTF-8 Plain Text
    Title : forced
    Language : English
    Default : No
    Forced : No
    Text #4
    ID : 7
    Format : UTF-8
    Codec ID : S_TEXT/UTF8
    Codec ID/Info : UTF-8 Plain Text
    Title : full
    Language : English
    Default : No
    Forced : No
    Text #5
    ID : 8
    Format : UTF-8
    Codec ID : S_TEXT/UTF8
    Codec ID/Info : UTF-8 Plain Text
    Title : SDH
    Language : English
    Default : No
    Forced : No
    Menu
    00:00:00.000 : en:Chapter 1
    00:05:04.846 : en:Chapter 2
    00:07:58.311 : en:Chapter 3
    00:13:18.965 : en:Chapter 4
    00:21:10.686 : en:Chapter 5
    00:28:21.658 : en:Chapter 6
    00:37:07.767 : en:Chapter 7
    00:44:00.346 : en:Chapter 8
    00:48:14.975 : en:Chapter 9
    00:51:42.266 : en:Chapter 10
    00:56:51.033 : en:Chapter 11
    00:59:50.754 : en:Chapter 12
    01:03:31.766 : en:Chapter 13
    01:11:52.433 : en:Chapter 14
    01:16:36.133 : en:Chapter 15
    01:21:22.377 : en:Chapter 16
    01:28:31.139 : en:Chapter 17
    01:37:29.969 : en:Chapter 18
    01:48:44.643 : en:Chapter 19
    01:53:08.782 : en:Chapter 20
    01:59:05.930 : en:Chapter 21
    02:02:56.703 : en:Chapter 22
    02:15:45.262 : en:Chapter 23
    02:22:51.021 : en:Chapter 24

    x264

    x264 [info]: frame I:1143 Avg QP:16.45 size: 79530
    x264 [info]: frame P:49952 Avg QP:17.91 size: 31396
    x264 [info]: frame B:173832 Avg QP:19.07 size: 11008
    x264 [info]: consecutive B-frames: 1.5% 3.6% 6.0% 31.8% 17.5% 27.0% 3.9% 4.2% 0.9% 0.6% 0.4% 1.0% 0.6% 0.2% 0.8%
    x264 [info]: mb I I16..4: 4.4% 72.2% 23.4%
    x264 [info]: mb P I16..4: 0.3% 10.2% 1.4% P16..4: 28.4% 36.5% 16.2% 0.0% 0.0% skip: 7.0%
    x264 [info]: mb B I16..4: 0.0% 1.8% 0.2% B16..8: 31.9% 23.1% 4.5% direct: 6.0% skip:32.4% L0:37.7% L1:43.8% BI:18.6%
    x264 [info]: 8x8 transform intra:85.0% inter:54.5%
    x264 [info]: coded y,uvDC,uvAC intra: 94.7% 74.3% 41.6% inter: 27.1% 14.1% 1.7%
    x264 [info]: i16 v,h,dc,p: 14% 9% 8% 69%
    x264 [info]: i8 v,h,dc,ddl,ddr,vr,hd,vl,hu: 6% 9% 5% 10% 14% 12% 16% 11% 17%
    x264 [info]: i4 v,h,dc,ddl,ddr,vr,hd,vl,hu: 7% 7% 5% 9% 17% 13% 17% 10% 15%
    x264 [info]: i8c dc,h,v,p: 36% 32% 17% 15%
    x264 [info]: Weighted P-Frames: Y:98.5% UV:4.2%
    x264 [info]: ref P L0: 51.6% 14.7% 13.9% 5.1% 3.9% 2.9% 2.5% 1.5% 1.3% 1.2% 1.2% 0.2% 0.0%
    x264 [info]: ref B L0: 80.5% 8.7% 3.9% 2.0% 1.5% 1.2% 1.0% 0.7% 0.4% 0.2%
    x264 [info]: ref B L1: 94.2% 5.8%
    x264 [info]: kb/s:3046.75

    Скриншоты

    с названием

    Скачать .torrent

    Скачать торрент-файл бесплатно и на максимальной скорости!

    Как скачивать? · Что такое торрент? · Рейтинг и ограничения

    !ВНИМАНИЕ!
    Сайт не распространяет и не хранит электронные версии произведений, а занимается лишь лишь предоставлением доступа к создаваемому пользователями каталогу ссылок на торрент-файлы, которые содержат только списки хеш-сумм, убедительная просьба с жалобами обращаться напрямую к пользователю. Файлы для обмена на трекере предоставлены пользователями сайта, и администрация не несёт ответственности за их содержание. Просьба не заливать файлы, защищенные авторскими правами, а также файлы нелегального содержания!


    _________________
    [Профиль] [ЛС]
    Показать сообщения:    
    Ответить на тему

    Текущее время: Сегодня, в 16:34

    Часовой пояс: GMT + 2



    Вы не можете начинать темы
    Вы не можете отвечать на сообщения
    Вы не можете редактировать свои сообщения
    Вы не можете удалять свои сообщения
    Вы не можете голосовать в опросах
    Вы не можете прикреплять файлы к сообщениям
    Вы не можете скачивать файлы