BitTorrentTracker PerecTracker.org
BitTorrentTracker PerecTracker.org
    
Регистрация  ·  Вход
 
 · 
Забыли пароль?

  • Никита / Nikita (Люк Бессон) [1990, Франция, Италия, боевик, триллер, BDRip HD (720p), SD (480p)], MVO, DVO, Original (fra, eng) + SUB (Rus, eng)

    Ответить на тему
     
    Автор Сообщение

    rechyn

    Создавать темы 17-Апр-2016 04:20

           

    [Цитировать]

    Никита / Nikita
    "Sie tötet. Um zu leben"
    7.330 / 10
    -Год выпуска: 1990
    Страна: Франция, Италия
    Жанр: боевик, триллер
    Продолжительность: 117 мин.
    Перевод: Многоголосый закадровый перевод, двухголосый закадровый перевод и одноголосый закадровый авторский перевод
    Оригинальная аудиодорожка: Есть
    Cубтитры: Русские полные и английские полные
    Режиссёр: Люк Бессон
    Сценарий: Люк Бессон
    Продюсер: Клод Бессон, Люк Бессон, Марио Чекки Гори
    Оператор: Тьерри Арбогаст
    Композитор: Эрик Серра
    Художник: Дэн Вейл, Энн Анджелини, Валентин Бретон Де Лойс
    Монтаж: Оливье Моффруа
    В ролях: Анн Парийо, Марк Дюре, Патрик Фонтана, Ален Латьер, Лаура Черон, Жак Буде, Хелен Алигер, Пьер-Ален Де Гарригес, Патрик Перез, Бруно Рандон
    Бюджет: FRF 50 000 000
    Сборы в США: $5 017 971
    Мировая премьера: 21 февраля 1990
    Релиз на Blu-Ray: 17 ноября 2010, Кармен Видео
    Релиз на DVD: 20 марта 2003, Columbia/Sony
    Описание: Никита, молоденькая девушка, под действием наркотиков вместе с друзьями совершает ограбление и убийство. После суда приговор не приводится в исполнение, а Никиту отправляют в школу специальных агентов.
    Ее больше нет, она становится секретным агентом без прошлого и будущего...-Качество исходника: BD-Remux 1080p (HDClub)
    Качество: BDRip
    Тип: 480p 720p
    Контейнер: m4v
    Видео: 640x364 анаморф 852x364 at 23.976 fps, MPEG-4 AVC, ~1800 kbps avg
    Видео: 1280x544 at 23.976 fps, MPEG-4 AVC, ~7000 kbps avg
    Аудио#1: Russian: 48 kHz, ААС, 2/0 (L,R), ~128.00 / 160.00 kbps avg |Многоголосый закадровый, № 1|
    Аудио#2: Russian: 48 kHz, ААС, 2/0 (L,R), ~128.00 / 160.00 kbps avg |Многоголосый закадровый, № 2|
    Аудио#3: Russian: 48 kHz, ААС, 2/0 (L,R), ~128.00 / 160.00 kbps avg |Двуголосый закадровый, Петр Гланц и Инна Королёва (Наложен на французкий DTS c SUPERBIT R2 Japan)|
    Аудио#4: Russian: 48 kHz, ААС, 2/0 (L,R), ~128.00 / 160.00 kbps avg |Двуголосый закадровый, Петр Гланц и Инна Королёва (Наложен на английский DTS encoded from TrueHD 5.1)|
    Аудио#5: Russian: 48 kHz, ААС, 2/0 (L,R), ~128.00 / 160.00 kbps avg |Одноголосый закадровый, Юрий Живов|
    Аудио#6: French: 48 kHz, ААС, 2/0 (L,R), ~128.00 / 160.00 kbps avg
    Аудио#7: English: 48 kHz, ААС, 2/0 (L,R), ~128.00 / 160.00 kbps avg
    Аудио#8: Russian: 48 kHz, AC3, 3/2 (L,C,R,l,r) + LFE ch, ~448.00 kbps avg |Многоголосый закадровый, № 1|
    Аудио#9: Russian: 48 kHz, AC3, 3/2 (L,C,R,l,r) + LFE ch, ~640.00 kbps avg |Двуголосый закадровый, Петр Гланц и Инна Королёва (Наложен на французкий DTS c SUPERBIT R2 Japan)|
    Аудио#10: Russian: 48 kHz, AC3, 3/2 (L,C,R,l,r) + LFE ch, ~640.00 kbps avg |Двуголосый закадровый, Петр Гланц и Инна Королёва (Наложен на английский DTS encoded from TrueHD 5.1)|
    Аудио#11: Russian: 48 kHz, AC3, 3/2 (L,C,R,l,r) + LFE ch, ~448.00 kbps avg |Одноголосый закадровый, Юрий Живов|
    Аудио#12: French: 48 kHz, AC3, 3/2 (L,C,R,l,r) + LFE ch, ~448.00 kbps avg
    Аудио#13: English: 48 kHz, AC3, 3/2 (L,C,R,l,r) + LFE ch, ~640.00 kbps avg
    Субтитры №1: Russian: |Полные|
    Субтитры №2: English: |Полные|-

    из книги «3500 кинорецензий»


    Эстетская шпионско-приключенческая мелодрама (Сергей Кудрявцев 6.5/10)
    Этот фильм Люка Бессона пользовался популярностью не только во Франции, но и в других странах, например, в Великобритании и США (кстати, там он стал первым из французских кинопроизведений, сумевшим преодолеть рубеж кассовых сборов в $5 млн.). Позже был переснят в качестве американского римейка под названием «Точка невозврата», а также породил долголетний телесериал, точное англоязычное название которого — «Женщина по имени Никита» (между прочим, Бессон потом признался, что первоначальная идея его картины была навеяна известным одноимённым видеоклипом Элтона Джона).
    Уже в предшествующей «Никите» ленте «Голубая бездна» молодой французский режиссёр, отказавшись от эпатажа и розыгрыша «Подземки», остался верен лишь своему необарочному стилю. Необычно величественный и торжественный показ разыгрываемой истории при ближайшем рассмотрении вполне мог сойти за голливудскую зрелищность. Не случайно, что Бессона, как и его соратников по необарокко, приметили именно в Голливуде. А «Никита» доказала, что Люк Бессон склонен был создать только видимость постмодернистской традиции, неординарно обыграть расхожий шпионский сюжет, почти на всём протяжении действия эффектно и многозначительно рассказывая о подготовке девушки-преступницы с редким именем Никита для некой ответственной и секретной миссии.
    Но в итоге выяснилось, что никакого второго слоя в фильме вообще нет, автору сценария и постановщику в одном лице не хватает даже иронии, чтобы не так уж явно любоваться тем, как он дерзко обращается с жанром, играет с фактурой, жонглирует кинематографическими приёмами, обманывает, словно иллюзионист, излишне доверчивых зрителей. Право же, лучше предпочесть откровенно пародийную шпионскую картину «Операция «Тушёнка» Жан-Мари Пуаре, снятую в том же году, где, кстати, сыграл любимый бессоновский исполнитель Жан Рено. А прославившаяся в «Никите» актриса Анн Парийо (тогда она была женой Люка Бессона) получила, помимо «Сезара» за роль, ещё и новые приглашения, причём в разные страны, включая опять же США.
    1990/2007

    -

    iTunes Meta Tags for country fr

    Name: Nikita
    Artist: Luc Besson
    Genre: Drama
    Release Date: 1990-02-21T08:00:00Z
    Description: Никита, молоденькая девушка, под действием наркотиков вместе с друзьями совершает ограбление и убийство. После суда приговор не приводится в исполнение, а Никиту отправляют в школу специальных агентов...
    Long Description: Никита, молоденькая девушка, под действием наркотиков вместе с друзьями совершает ограбление и убийство. После суда приговор не приводится в исполнение, а Никиту отправляют в школу специальных агентов.
    Ее больше нет, она становится секретным агентом без прошлого и будущего...
    Rating: Tout public
    Studio: GAUMONT
    Cast: Анн Парийо, Марк Дюре, Патрик Фонтана, Ален Латьер, Лаура Черон, Жак Буде, Хелен Алигер, Пьер-Ален Де Гарригес, Патрик Перез, Бруно Рандон
    Director: Люк Бессон
    Producers: Клод Бессон, Люк Бессон, Марио Чекки Гори
    Screenwriters: Люк Бессон
    Copyright: © 1990 GAUMONT (France) / CECCHI GORI GROUP FIN. MA. VI -srl (Italie)
    contentID: 386509815
    XID: Apple:vendor_id:1990-14301
    Sort Name: Nikita

    MediaInfo 480p Release

    Общее
    Полное имя : Nikita.m4v
    Формат : MPEG-4
    Идентификатор кодека : M4V  (M4V /M4A /mp42/isom)
    Размер файла : 2,22 Гбайт
    Продолжительность : 1 ч. 57 м.
    Режим общего битрейта : Переменный
    Общий поток : 2706 Кбит/сек
    Название фильма : Nikita
    Исполнитель : Luc Besson
    Режиссёр : Люк Бессон
    Исполнитель : Анн Парийо / Марк Дюре / Патрик Фонтана / Ален Латьер / Лаура Черон / Жак Буде / Хелен Алигер / Пьер-Ален Де Гарригес / Патрик Перез / Бруно Рандон
    Сценарист : Люк Бессон
    Продюсер : Клод Бессон / Люк Бессон / Марио Чекки Гори
    Студия-производитель : GAUMONT
    Жанр : Drama
    Тип содержимого : Short Film
    Описание : Никита, молоденькая девушка, под действием наркотиков вместе с друзьями совершает ограбление и убийство. После суда приговор не приводится в исполнение, а Никиту отправляют в школу специальных агентов...
    Дата записи : UTC 1990-02-21 08:00:00
    Дата кодирования : UTC 2016-04-16 22:12:18
    Дата пометки : UTC 2016-04-16 22:14:19
    Авторское право : © 1990 GAUMONT (France) / CECCHI GORI GROUP FIN. MA. VI -srl (Italie)
    Обложка : Yes
    Оценка : None
    Title/Sort : Nikita
    LongDescription : Никита, молоденькая девушка, под действием наркотиков вместе с друзьями совершает ограбление и убийство. После суда приговор не приводится в исполнение, а Никиту отправляют в школу специальных агентов. / Ее больше нет, она становится секретным агентом без прошлого и будущего...
    AppleStoreCatalogID : 386509815
    Vendor : Apple:vendor_id:1990-14301
    ContentRating : fr-movie|Tout public|000|
    Видео #1
    Идентификатор : 1
    Формат : AVC
    Формат/Информация : Advanced Video Codec
    Профиль формата : Baseline@L3
    Параметр CABAC формата : Нет
    Параметр ReFrames формата : 2 кадра
    Идентификатор кодека : avc1
    Идентификатор кодека/Информация : Advanced Video Coding
    Продолжительность : 1 ч. 57 м.
    Битрейт : 1800 Кбит/сек
    Ширина : 640 пикселей
    Высота : 364 пикселя
    Соотношение сторон : 2,35:1
    Соотношение сторон в оригинале : 2,35:1
    Режим частоты кадров : Переменный
    Частота кадров : 23,976 (24000/1001) кадра/сек
    Минимальная частота кадров : 23,810 кадра/сек
    Максимальная частота кадров : 24,390 кадра/сек
    Цветовое пространство : YUV
    Субдискретизация насыщенности : 4:2:0
    Битовая глубина : 8 бит
    Тип развёртки : Прогрессивная
    Бит/(Пиксели*Кадры) : 0.322
    Размер потока : 1,47 Гбайт (66%)
    Заголовок : Main Program
    Библиотека кодирования : x264 core 130 r2273 b3065e6
    Настройки программы : cabac=0 / ref=2 / deblock=1:0:0 / analyse=0x1:0x111 / me=umh / subme=6 / psy=1 / psy_rd=1.00:0.00 / mixed_ref=1 / me_range=16 / chroma_me=1 / trellis=0 / 8x8dct=0 / cqm=0 / deadzone=21,11 / fast_pskip=1 / chroma_qp_offset=-2 / threads=18 / lookahead_threads=2 / sliced_threads=0 / nr=0 / decimate=1 / interlaced=0 / bluray_compat=0 / constrained_intra=0 / bframes=0 / weightp=0 / keyint=240 / keyint_min=24 / scenecut=40 / intra_refresh=0 / rc_lookahead=40 / rc=2pass / mbtree=1 / bitrate=1800 / ratetol=1.0 / qcomp=0.60 / qpmin=0 / qpmax=69 / qpstep=4 / cplxblur=20.0 / qblur=0.5 / vbv_maxrate=5000 / vbv_bufsize=5000 / nal_hrd=none / ip_ratio=1.40 / aq=1:1.00
    Язык : French
    Дата кодирования : UTC 2016-04-16 22:12:18
    Дата пометки : UTC 2016-04-16 22:13:29
    Цветовой диапазон : Limited
    Основные цвета : BT.709
    Характеристики трансфера : BT.709
    Коэффициенты матрицы : BT.709
    Menus : 11,12
    Видео #2
    Идентификатор : 12
    Формат : JPEG
    Идентификатор кодека : jpeg
    Продолжительность : 1 ч. 57 м.
    Вид битрейта : Переменный
    Битрейт : 624 бит/сек
    Ширина : 640 пикселей
    Высота : 273 пикселя
    Соотношение сторон : 2,35:1
    Режим частоты кадров : Переменный
    Частота кадров : 0,002 кадр/сек
    Минимальная частота кадров : 0,001 кадр/сек
    Максимальная частота кадров : 0,004 кадр/сек
    Цветовое пространство : YUV
    Субдискретизация насыщенности : 4:2:0
    Битовая глубина : 8 бит
    Метод сжатия : С потерями
    Бит/(Пиксели*Кадры) : 1.786
    Размер потока : 610 Кбайт (0%)
    Заголовок : Chapter Images
    Язык : French
    Default : Нет
    Дата кодирования : UTC 2016-04-16 22:13:32
    Дата пометки : UTC 2016-04-16 22:13:32
    Menu For : 1
    Аудио #1
    Идентификатор : 2
    Формат : AAC
    Формат/Информация : Advanced Audio Codec
    Профиль формата : LC
    Идентификатор кодека : 40
    Продолжительность : 1 ч. 57 м.
    Вид битрейта : Переменный
    Битрейт : 132 Кбит/сек
    Максимальный битрейт : 207 Кбит/сек
    Каналы : 2 канала
    Расположение каналов : Front: L R
    Частота : 48,0 КГц
    Частота кадров : 46,875 кадров/сек (1024 spf)
    Метод сжатия : С потерями
    Размер потока : 111 Мбайт (5%)
    Заголовок : Russian MVO 1 Stereo
    Язык : Russian
    Default : Да
    Alternate group : 1
    Дата кодирования : UTC 2016-04-16 22:12:18
    Дата пометки : UTC 2016-04-16 22:12:27
    Menus : 11
    Аудио #2
    Идентификатор : 3
    Формат : AAC
    Формат/Информация : Advanced Audio Codec
    Профиль формата : LC
    Идентификатор кодека : 40
    Продолжительность : 1 ч. 57 м.
    Вид битрейта : Переменный
    Битрейт : 102 Кбит/сек
    Максимальный битрейт : 116 Кбит/сек
    Каналы : 2 канала
    Расположение каналов : Front: L R
    Частота : 48,0 КГц
    Частота кадров : 46,875 кадров/сек (1024 spf)
    Метод сжатия : С потерями
    Размер потока : 85,7 Мбайт (4%)
    Заголовок : Russian MVO 2 Stereo
    Язык : Russian
    Default : Нет
    Alternate group : 1
    Дата кодирования : UTC 2016-04-16 22:12:18
    Дата пометки : UTC 2016-04-16 22:12:27
    Аудио #3
    Идентификатор : 4
    Формат : AAC
    Формат/Информация : Advanced Audio Codec
    Профиль формата : LC
    Идентификатор кодека : 40
    Продолжительность : 1 ч. 57 м.
    Вид битрейта : Переменный
    Битрейт : 132 Кбит/сек
    Максимальный битрейт : 200 Кбит/сек
    Каналы : 2 канала
    Расположение каналов : Front: L R
    Частота : 48,0 КГц
    Частота кадров : 46,875 кадров/сек (1024 spf)
    Метод сжатия : С потерями
    Размер потока : 110 Мбайт (5%)
    Заголовок : Russian DVO P.Glanz & I.Koroleva (VO over French DTS) Stereo
    Язык : French
    Default : Нет
    Alternate group : 1
    Дата кодирования : UTC 2016-04-16 22:12:18
    Дата пометки : UTC 2016-04-16 22:12:27
    Аудио #4
    Идентификатор : 5
    Формат : AAC
    Формат/Информация : Advanced Audio Codec
    Профиль формата : LC
    Идентификатор кодека : 40
    Продолжительность : 1 ч. 57 м.
    Вид битрейта : Переменный
    Битрейт : 132 Кбит/сек
    Максимальный битрейт : 205 Кбит/сек
    Каналы : 2 канала
    Расположение каналов : Front: L R
    Частота : 48,0 КГц
    Частота кадров : 46,875 кадров/сек (1024 spf)
    Метод сжатия : С потерями
    Размер потока : 110 Мбайт (5%)
    Заголовок : Russian DVO P.Glanz & I.Koroleva (VO over English DTS) Stereo
    Язык : English
    Default : Нет
    Alternate group : 1
    Дата кодирования : UTC 2016-04-16 22:12:18
    Дата пометки : UTC 2016-04-16 22:12:27
    Аудио #5
    Идентификатор : 6
    Формат : AAC
    Формат/Информация : Advanced Audio Codec
    Профиль формата : LC
    Идентификатор кодека : 40
    Продолжительность : 1 ч. 57 м.
    Вид битрейта : Переменный
    Битрейт : 132 Кбит/сек
    Максимальный битрейт : 192 Кбит/сек
    Каналы : 2 канала
    Расположение каналов : Front: L R
    Частота : 48,0 КГц
    Частота кадров : 46,875 кадров/сек (1024 spf)
    Метод сжатия : С потерями
    Размер потока : 110 Мбайт (5%)
    Заголовок : Russian AVO U.Zhivov Stereo
    Язык : Russian
    Default : Нет
    Alternate group : 1
    Дата кодирования : UTC 2016-04-16 22:12:18
    Дата пометки : UTC 2016-04-16 22:12:27
    Аудио #6
    Идентификатор : 7
    Формат : AAC
    Формат/Информация : Advanced Audio Codec
    Профиль формата : LC
    Идентификатор кодека : 40
    Продолжительность : 1 ч. 57 м.
    Вид битрейта : Переменный
    Битрейт : 132 Кбит/сек
    Максимальный битрейт : 206 Кбит/сек
    Каналы : 2 канала
    Расположение каналов : Front: L R
    Частота : 48,0 КГц
    Частота кадров : 46,875 кадров/сек (1024 spf)
    Метод сжатия : С потерями
    Размер потока : 110 Мбайт (5%)
    Заголовок : French Stereo
    Язык : French
    Default : Нет
    Alternate group : 1
    Дата кодирования : UTC 2016-04-16 22:12:18
    Дата пометки : UTC 2016-04-16 22:12:27
    Аудио #7
    Идентификатор : 8
    Формат : AAC
    Формат/Информация : Advanced Audio Codec
    Профиль формата : LC
    Идентификатор кодека : 40
    Продолжительность : 1 ч. 57 м.
    Вид битрейта : Переменный
    Битрейт : 132 Кбит/сек
    Максимальный битрейт : 204 Кбит/сек
    Каналы : 2 канала
    Расположение каналов : Front: L R
    Частота : 48,0 КГц
    Частота кадров : 46,875 кадров/сек (1024 spf)
    Метод сжатия : С потерями
    Размер потока : 111 Мбайт (5%)
    Заголовок : English Stereo
    Язык : English
    Default : Нет
    Alternate group : 1
    Дата кодирования : UTC 2016-04-16 22:12:18
    Дата пометки : UTC 2016-04-16 22:12:27
    Текст #1
    Идентификатор : 9
    Формат : Timed Text
    Режим смешивания : sbtl
    Идентификатор кодека : tx3g
    Продолжительность : 1 ч. 53 м.
    Вид битрейта : Переменный
    Битрейт : 53 бит/сек
    Размер потока : 44,2 Кбайт (0%)
    Заголовок : Russian Subtitle
    Язык : Russian
    Default : Да
    Forced : Нет
    Alternate group : 2
    Дата кодирования : UTC 2016-04-16 22:12:18
    Дата пометки : UTC 2016-04-16 22:12:18
    Текст #2
    Идентификатор : 10
    Формат : Timed Text
    Режим смешивания : sbtl
    Идентификатор кодека : tx3g
    Продолжительность : 1 ч. 53 м.
    Вид битрейта : Переменный
    Битрейт : 25 бит/сек
    Размер потока : 21,1 Кбайт (0%)
    Заголовок : English Subtitle
    Язык : English
    Default : Нет
    Forced : Нет
    Alternate group : 2
    Дата кодирования : UTC 2016-04-16 22:12:18
    Дата пометки : UTC 2016-04-16 22:12:18
    Меню #1
    00:00:00.000 : Main Title
    00:07:45.964 : Shop Till You Drop... Dead
    00:13:26.972 : Her Name in Blood
    00:21:06.848 : A Life Sentence
    00:24:57.579 : Mother Has Been Warned
    00:35:09.690 : Officially Deceased
    00:41:15.264 : Never the First Bullet
    00:49:15.744 : Reeducation
    00:55:00.714 : Barely Human
    01:02:30.580 : No Sunday, No Exception
    01:08:58.050 : Happy Final Birthday
    01:16:13.860 : Abusing Feminine Wiles
    01:28:49.032 : A Date Outside
    01:34:41.008 : One Hell of a Present
    01:41:27.414 : A Kiss Before Leaving
    01:45:53.555 : Code Name "Josephine"
    Меню #2
    Идентификатор : 11
    Идентификатор кодека : text
    Продолжительность : 1 ч. 57 м.
    Заголовок : Chapter Titles
    Язык : English
    Дата кодирования : UTC 2016-04-16 22:13:29
    Дата пометки : UTC 2016-04-16 22:13:29
    Menu For : 2,1
    00:00:00.000 : Main Title
    00:07:45.964 : Shop Till You Drop... Dead
    00:13:26.972 : Her Name in Blood
    00:21:06.848 : A Life Sentence
    00:24:57.579 : Mother Has Been Warned
    00:35:09.690 : Officially Deceased
    00:41:15.264 : Never the First Bullet
    00:49:15.744 : Reeducation
    00:55:00.714 : Barely Human
    01:02:30.580 : No Sunday, No Exception
    01:08:58.050 : Happy Final Birthday
    01:16:13.860 : Abusing Feminine Wiles
    01:28:49.032 : A Date Outside
    01:34:41.008 : One Hell of a Present
    01:41:27.414 : A Kiss Before Leaving
    01:45:53.555 : Code Name "Josephine"
    Вид битрейта : VBR

    MediaInfo 720p Release

    Общее
    Полное имя : Nikita (HD).m4v
    Формат : MPEG-4
    Идентификатор кодека : M4V  (M4V /M4A /mp42/isom)
    Размер файла : 9,30 Гбайт
    Продолжительность : 1 ч. 57 м.
    Режим общего битрейта : Переменный
    Общий поток : 11,4 Мбит/сек
    Название фильма : Nikita
    Исполнитель : Luc Besson
    Режиссёр : Люк Бессон
    Исполнитель : Анн Парийо / Марк Дюре / Патрик Фонтана / Ален Латьер / Лаура Черон / Жак Буде / Хелен Алигер / Пьер-Ален Де Гарригес / Патрик Перез / Бруно Рандон
    Сценарист : Люк Бессон
    Продюсер : Клод Бессон / Люк Бессон / Марио Чекки Гори
    Студия-производитель : GAUMONT
    Жанр : Drama
    Тип содержимого : Short Film
    Описание : Никита, молоденькая девушка, под действием наркотиков вместе с друзьями совершает ограбление и убийство. После суда приговор не приводится в исполнение, а Никиту отправляют в школу специальных агентов...
    Дата записи : UTC 1990-02-21 08:00:00
    Дата кодирования : UTC 2016-04-16 21:48:51
    Дата пометки : UTC 2016-04-16 22:03:15
    Авторское право : © 1990 GAUMONT (France) / CECCHI GORI GROUP FIN. MA. VI -srl (Italie)
    Обложка : Yes
    Оценка : None
    Title/Sort : Nikita
    LongDescription : Никита, молоденькая девушка, под действием наркотиков вместе с друзьями совершает ограбление и убийство. После суда приговор не приводится в исполнение, а Никиту отправляют в школу специальных агентов. / Ее больше нет, она становится секретным агентом без прошлого и будущего...
    HDVideo : Yes
    AppleStoreCatalogID : 386509815
    Vendor : Apple:vendor_id:1990-14301
    ContentRating : fr-movie|Tout public|000|
    Видео #1
    Идентификатор : 1
    Формат : AVC
    Формат/Информация : Advanced Video Codec
    Профиль формата : High@L3.1
    Параметр CABAC формата : Нет
    Параметр ReFrames формата : 3 кадра
    Идентификатор кодека : avc1
    Идентификатор кодека/Информация : Advanced Video Coding
    Продолжительность : 1 ч. 57 м.
    Продолжительность оригинала : 1 ч. 57 м.
    Битрейт : 7000 Кбит/сек
    Ширина : 1280 пикселей
    Высота : 544 пикселя
    Соотношение сторон : 2,35:1
    Режим частоты кадров : Переменный
    Частота кадров : 23,976 (24000/1001) кадра/сек
    Минимальная частота кадров : 23,810 кадра/сек
    Максимальная частота кадров : 24,390 кадра/сек
    Цветовое пространство : YUV
    Субдискретизация насыщенности : 4:2:0
    Битовая глубина : 8 бит
    Тип развёртки : Прогрессивная
    Бит/(Пиксели*Кадры) : 0.419
    Размер потока : 5,70 Гбайт (61%)
    Размер потока оригинала : 5,70 Гбайт (61%)
    Заголовок : Main Program
    Библиотека кодирования : x264 core 130 r2273 b3065e6
    Настройки программы : cabac=0 / ref=3 / deblock=1:-3:-2 / analyse=0x3:0x113 / me=umh / subme=9 / psy=1 / psy_rd=0.80:0.25 / mixed_ref=1 / me_range=32 / chroma_me=1 / trellis=0 / 8x8dct=1 / cqm=0 / deadzone=6,6 / fast_pskip=0 / chroma_qp_offset=-2 / threads=18 / lookahead_threads=1 / sliced_threads=0 / nr=0 / decimate=0 / interlaced=0 / bluray_compat=0 / constrained_intra=0 / bframes=3 / b_pyramid=0 / b_adapt=2 / b_bias=0 / direct=1 / weightb=0 / open_gop=0 / weightp=0 / keyint=240 / keyint_min=24 / scenecut=40 / intra_refresh=0 / rc_lookahead=40 / rc=2pass / mbtree=1 / bitrate=7000 / ratetol=1.0 / qcomp=0.80 / qpmin=0 / qpmax=69 / qpstep=4 / cplxblur=20.0 / qblur=0.5 / vbv_maxrate=9500 / vbv_bufsize=9500 / nal_hrd=none / ip_ratio=1.10 / aq=1:0.50
    Язык : French
    Дата кодирования : UTC 2016-04-16 21:48:51
    Дата пометки : UTC 2016-04-16 21:53:31
    Цветовой диапазон : Limited
    Основные цвета : BT.709
    Характеристики трансфера : BT.709
    Коэффициенты матрицы : BT.709
    Menus : 17,18
    Видео #2
    Идентификатор : 18
    Формат : JPEG
    Идентификатор кодека : jpeg
    Продолжительность : 1 ч. 57 м.
    Вид битрейта : Переменный
    Битрейт : 659 бит/сек
    Ширина : 640 пикселей
    Высота : 272 пикселя
    Соотношение сторон : 2,35:1
    Режим частоты кадров : Переменный
    Частота кадров : 0,002 кадр/сек
    Минимальная частота кадров : 0,001 кадр/сек
    Максимальная частота кадров : 0,004 кадр/сек
    Цветовое пространство : YUV
    Субдискретизация насыщенности : 4:2:0
    Битовая глубина : 8 бит
    Метод сжатия : С потерями
    Бит/(Пиксели*Кадры) : 1.893
    Размер потока : 644 Кбайт (0%)
    Заголовок : Chapter Images
    Язык : French
    Default : Нет
    Дата кодирования : UTC 2016-04-16 21:53:37
    Дата пометки : UTC 2016-04-16 21:53:37
    Menu For : 1
    Аудио #1
    Идентификатор : 2
    Формат : AAC
    Формат/Информация : Advanced Audio Codec
    Профиль формата : LC
    Идентификатор кодека : 40
    Продолжительность : 1 ч. 57 м.
    Вид битрейта : Переменный
    Битрейт : 165 Кбит/сек
    Максимальный битрейт : 248 Кбит/сек
    Каналы : 2 канала
    Расположение каналов : Front: L R
    Частота : 48,0 КГц
    Частота кадров : 46,875 кадров/сек (1024 spf)
    Метод сжатия : С потерями
    Размер потока : 138 Мбайт (1%)
    Заголовок : Russian MVO 1 Stereo
    Язык : Russian
    Default : Да
    Alternate group : 1
    Дата кодирования : UTC 2016-04-16 21:48:51
    Дата пометки : UTC 2016-04-16 21:49:08
    Fallback From : 9
    Menus : 17
    Аудио #2
    Идентификатор : 3
    Формат : AAC
    Формат/Информация : Advanced Audio Codec
    Профиль формата : LC
    Идентификатор кодека : 40
    Продолжительность : 1 ч. 57 м.
    Вид битрейта : Переменный
    Битрейт : 123 Кбит/сек
    Максимальный битрейт : 143 Кбит/сек
    Каналы : 2 канала
    Расположение каналов : Front: L R
    Частота : 48,0 КГц
    Частота кадров : 46,875 кадров/сек (1024 spf)
    Метод сжатия : С потерями
    Размер потока : 103 Мбайт (1%)
    Заголовок : Russian MVO 2 Stereo
    Язык : Russian
    Default : Нет
    Alternate group : 1
    Дата кодирования : UTC 2016-04-16 21:48:51
    Дата пометки : UTC 2016-04-16 21:49:08
    Аудио #3
    Идентификатор : 4
    Формат : AAC
    Формат/Информация : Advanced Audio Codec
    Профиль формата : LC
    Идентификатор кодека : 40
    Продолжительность : 1 ч. 57 м.
    Вид битрейта : Переменный
    Битрейт : 164 Кбит/сек
    Максимальный битрейт : 246 Кбит/сек
    Каналы : 2 канала
    Расположение каналов : Front: L R
    Частота : 48,0 КГц
    Частота кадров : 46,875 кадров/сек (1024 spf)
    Метод сжатия : С потерями
    Размер потока : 138 Мбайт (1%)
    Заголовок : Russian DVO P.Glanz & I.Koroleva (VO over French DTS) Stereo
    Язык : French
    Default : Нет
    Alternate group : 1
    Дата кодирования : UTC 2016-04-16 21:48:51
    Дата пометки : UTC 2016-04-16 21:49:08
    Fallback From : 10
    Аудио #4
    Идентификатор : 5
    Формат : AAC
    Формат/Информация : Advanced Audio Codec
    Профиль формата : LC
    Идентификатор кодека : 40
    Продолжительность : 1 ч. 57 м.
    Вид битрейта : Переменный
    Битрейт : 165 Кбит/сек
    Максимальный битрейт : 248 Кбит/сек
    Каналы : 2 канала
    Расположение каналов : Front: L R
    Частота : 48,0 КГц
    Частота кадров : 46,875 кадров/сек (1024 spf)
    Метод сжатия : С потерями
    Размер потока : 138 Мбайт (1%)
    Заголовок : Russian DVO P.Glanz & I.Koroleva (VO over English DTS) Stereo
    Язык : English
    Default : Нет
    Alternate group : 1
    Дата кодирования : UTC 2016-04-16 21:48:51
    Дата пометки : UTC 2016-04-16 21:49:08
    Fallback From : 11
    Аудио #5
    Идентификатор : 6
    Формат : AAC
    Формат/Информация : Advanced Audio Codec
    Профиль формата : LC
    Идентификатор кодека : 40
    Продолжительность : 1 ч. 57 м.
    Вид битрейта : Переменный
    Битрейт : 164 Кбит/сек
    Максимальный битрейт : 237 Кбит/сек
    Каналы : 2 канала
    Расположение каналов : Front: L R
    Частота : 48,0 КГц
    Частота кадров : 46,875 кадров/сек (1024 spf)
    Метод сжатия : С потерями
    Размер потока : 138 Мбайт (1%)
    Заголовок : Russian AVO U.Zhivov Stereo
    Язык : Russian
    Default : Нет
    Alternate group : 1
    Дата кодирования : UTC 2016-04-16 21:48:51
    Дата пометки : UTC 2016-04-16 21:49:08
    Fallback From : 12
    Аудио #6
    Идентификатор : 7
    Формат : AAC
    Формат/Информация : Advanced Audio Codec
    Профиль формата : LC
    Идентификатор кодека : 40
    Продолжительность : 1 ч. 57 м.
    Вид битрейта : Переменный
    Битрейт : 165 Кбит/сек
    Максимальный битрейт : 244 Кбит/сек
    Каналы : 2 канала
    Расположение каналов : Front: L R
    Частота : 48,0 КГц
    Частота кадров : 46,875 кадров/сек (1024 spf)
    Метод сжатия : С потерями
    Размер потока : 138 Мбайт (1%)
    Заголовок : French Stereo
    Язык : French
    Default : Нет
    Alternate group : 1
    Дата кодирования : UTC 2016-04-16 21:48:51
    Дата пометки : UTC 2016-04-16 21:49:08
    Fallback From : 13
    Аудио #7
    Идентификатор : 8
    Формат : AAC
    Формат/Информация : Advanced Audio Codec
    Профиль формата : LC
    Идентификатор кодека : 40
    Продолжительность : 1 ч. 57 м.
    Вид битрейта : Переменный
    Битрейт : 165 Кбит/сек
    Максимальный битрейт : 246 Кбит/сек
    Каналы : 2 канала
    Расположение каналов : Front: L R
    Частота : 48,0 КГц
    Частота кадров : 46,875 кадров/сек (1024 spf)
    Метод сжатия : С потерями
    Размер потока : 138 Мбайт (1%)
    Заголовок : English Stereo
    Язык : English
    Default : Нет
    Alternate group : 1
    Дата кодирования : UTC 2016-04-16 21:48:51
    Дата пометки : UTC 2016-04-16 21:49:08
    Fallback From : 14
    Аудио #8
    Идентификатор : 9
    Формат : AC-3
    Формат/Информация : Audio Coding 3
    Расширение режима : CM (complete main)
    Параметр Endianness формата : Big
    Идентификатор кодека : ac-3
    Продолжительность : 1 ч. 57 м.
    Вид битрейта : Постоянный
    Битрейт : 448 Кбит/сек
    Каналы : 6 каналов
    Расположение каналов : Front: L C R, Side: L R, LFE
    Частота : 48,0 КГц
    Частота кадров : 31,250 кадров/сек (1536 spf)
    Битовая глубина : 16 бит
    Метод сжатия : С потерями
    Размер потока : 376 Мбайт (4%)
    Заголовок : Russian MVO 1 DD 5.1
    Язык : Russian
    Default : Inherited From: 2
    Alternate group : 1
    Дата кодирования : UTC 2016-04-16 21:48:51
    Дата пометки : UTC 2016-04-16 21:49:04
    Fallback To : 2
    Аудио #9
    Идентификатор : 10
    Формат : AC-3
    Формат/Информация : Audio Coding 3
    Расширение режима : CM (complete main)
    Параметр Endianness формата : Big
    Идентификатор кодека : ac-3
    Продолжительность : 1 ч. 57 м.
    Вид битрейта : Постоянный
    Битрейт : 640 Кбит/сек
    Каналы : 6 каналов
    Расположение каналов : Front: L C R, Side: L R, LFE
    Частота : 48,0 КГц
    Частота кадров : 31,250 кадров/сек (1536 spf)
    Битовая глубина : 16 бит
    Метод сжатия : С потерями
    Размер потока : 537 Мбайт (6%)
    Заголовок : Russian DVO P.Glanz & I.Koroleva (VO over French DTS) DD 5.1
    Язык : French
    Default : Нет
    Alternate group : 1
    Дата кодирования : UTC 2016-04-16 21:48:51
    Дата пометки : UTC 2016-04-16 21:49:04
    Fallback To : 4
    Аудио #10
    Идентификатор : 11
    Формат : AC-3
    Формат/Информация : Audio Coding 3
    Расширение режима : CM (complete main)
    Параметр Endianness формата : Big
    Идентификатор кодека : ac-3
    Продолжительность : 1 ч. 57 м.
    Вид битрейта : Постоянный
    Битрейт : 640 Кбит/сек
    Каналы : 6 каналов
    Расположение каналов : Front: L C R, Side: L R, LFE
    Частота : 48,0 КГц
    Частота кадров : 31,250 кадров/сек (1536 spf)
    Битовая глубина : 16 бит
    Метод сжатия : С потерями
    Размер потока : 537 Мбайт (6%)
    Заголовок : Russian DVO P.Glanz & I.Koroleva (VO over English DTS) DD 5.1
    Язык : English
    Default : Нет
    Alternate group : 1
    Дата кодирования : UTC 2016-04-16 21:48:51
    Дата пометки : UTC 2016-04-16 21:49:04
    Fallback To : 5
    Аудио #11
    Идентификатор : 12
    Формат : AC-3
    Формат/Информация : Audio Coding 3
    Расширение режима : CM (complete main)
    Параметр Endianness формата : Big
    Идентификатор кодека : ac-3
    Продолжительность : 1 ч. 57 м.
    Вид битрейта : Постоянный
    Битрейт : 448 Кбит/сек
    Каналы : 6 каналов
    Расположение каналов : Front: L C R, Side: L R, LFE
    Частота : 48,0 КГц
    Частота кадров : 31,250 кадров/сек (1536 spf)
    Битовая глубина : 16 бит
    Метод сжатия : С потерями
    Размер потока : 376 Мбайт (4%)
    Заголовок : Russian AVO U.Zhivov DD 5.1
    Язык : Russian
    Default : Нет
    Alternate group : 1
    Дата кодирования : UTC 2016-04-16 21:48:51
    Дата пометки : UTC 2016-04-16 21:49:04
    Fallback To : 6
    Аудио #12
    Идентификатор : 13
    Формат : AC-3
    Формат/Информация : Audio Coding 3
    Расширение режима : CM (complete main)
    Параметр Endianness формата : Big
    Идентификатор кодека : ac-3
    Продолжительность : 1 ч. 57 м.
    Вид битрейта : Постоянный
    Битрейт : 448 Кбит/сек
    Каналы : 6 каналов
    Расположение каналов : Front: L C R, Side: L R, LFE
    Частота : 48,0 КГц
    Частота кадров : 31,250 кадров/сек (1536 spf)
    Битовая глубина : 16 бит
    Метод сжатия : С потерями
    Размер потока : 376 Мбайт (4%)
    Заголовок : French DD 5.1
    Язык : French
    Default : Нет
    Alternate group : 1
    Дата кодирования : UTC 2016-04-16 21:48:51
    Дата пометки : UTC 2016-04-16 21:49:04
    Fallback To : 7
    Аудио #13
    Идентификатор : 14
    Формат : AC-3
    Формат/Информация : Audio Coding 3
    Расширение режима : CM (complete main)
    Параметр Endianness формата : Big
    Идентификатор кодека : ac-3
    Продолжительность : 1 ч. 57 м.
    Вид битрейта : Постоянный
    Битрейт : 640 Кбит/сек
    Каналы : 6 каналов
    Расположение каналов : Front: L C R, Side: L R, LFE
    Частота : 48,0 КГц
    Частота кадров : 31,250 кадров/сек (1536 spf)
    Битовая глубина : 16 бит
    Метод сжатия : С потерями
    Размер потока : 537 Мбайт (6%)
    Заголовок : English DD 5.1
    Язык : English
    Default : Нет
    Alternate group : 1
    Дата кодирования : UTC 2016-04-16 21:48:51
    Дата пометки : UTC 2016-04-16 21:49:04
    Fallback To : 8
    Текст #1
    Идентификатор : 15
    Формат : Timed Text
    Режим смешивания : sbtl
    Идентификатор кодека : tx3g
    Продолжительность : 1 ч. 53 м.
    Вид битрейта : Переменный
    Битрейт : 53 бит/сек
    Размер потока : 44,2 Кбайт (0%)
    Заголовок : Russian Subtitle
    Язык : Russian
    Default : Да
    Forced : Нет
    Alternate group : 2
    Дата кодирования : UTC 2016-04-16 21:48:51
    Дата пометки : UTC 2016-04-16 21:48:51
    Текст #2
    Идентификатор : 16
    Формат : Timed Text
    Режим смешивания : sbtl
    Идентификатор кодека : tx3g
    Продолжительность : 1 ч. 53 м.
    Вид битрейта : Переменный
    Битрейт : 25 бит/сек
    Размер потока : 21,1 Кбайт (0%)
    Заголовок : English Subtitle
    Язык : English
    Default : Нет
    Forced : Нет
    Alternate group : 2
    Дата кодирования : UTC 2016-04-16 21:48:51
    Дата пометки : UTC 2016-04-16 21:48:51
    Меню #1
    00:00:00.000 : Main Title
    00:07:45.964 : Shop Till You Drop... Dead
    00:13:26.972 : Her Name in Blood
    00:21:06.848 : A Life Sentence
    00:24:57.579 : Mother Has Been Warned
    00:35:09.690 : Officially Deceased
    00:41:15.264 : Never the First Bullet
    00:49:15.744 : Reeducation
    00:55:00.714 : Barely Human
    01:02:30.580 : No Sunday, No Exception
    01:08:58.050 : Happy Final Birthday
    01:16:13.860 : Abusing Feminine Wiles
    01:28:49.032 : A Date Outside
    01:34:41.008 : One Hell of a Present
    01:41:27.414 : A Kiss Before Leaving
    01:45:53.555 : Code Name "Josephine"
    Меню #2
    Идентификатор : 17
    Идентификатор кодека : text
    Продолжительность : 1 ч. 57 м.
    Заголовок : Chapter Titles
    Язык : English
    Дата кодирования : UTC 2016-04-16 21:53:31
    Дата пометки : UTC 2016-04-16 21:53:31
    Menu For : 2,1
    00:00:00.000 : Main Title
    00:07:45.964 : Shop Till You Drop... Dead
    00:13:26.972 : Her Name in Blood
    00:21:06.848 : A Life Sentence
    00:24:57.579 : Mother Has Been Warned
    00:35:09.690 : Officially Deceased
    00:41:15.264 : Never the First Bullet
    00:49:15.744 : Reeducation
    00:55:00.714 : Barely Human
    01:02:30.580 : No Sunday, No Exception
    01:08:58.050 : Happy Final Birthday
    01:16:13.860 : Abusing Feminine Wiles
    01:28:49.032 : A Date Outside
    01:34:41.008 : One Hell of a Present
    01:41:27.414 : A Kiss Before Leaving
    01:45:53.555 : Code Name "Josephine"
    Вид битрейта : VBR

    x264 лог 480p Release

    HandBrakeCLI -i "La.Femme.Nikita.1990.1080p.BluRay.Remux.DTS.H264.Rus.French.Eng.mkv" -t 1 -o "Nikita.480p.fra.m4v" -f mp4 -I -O -w 640 -l 364 --crop 132:132:2:0 --custom-anamorphic --modulus 4 --pixel-aspect 852:640 -e x264 -b 1800 -2 -a none -x cabac=0:ref=2:me=umh:bframes=0:weightp=0:subq=6:8x8dct=0:trellis=0:vbv-maxrate=5000:vbv-bufsize=5000 --verbose=1
    x264 [info]: frame I:1758  Avg QP:17.08  size: 38741  PSNR Mean Y:45.30 U:48.55 V:49.45 Avg:46.19 Global:45.83
    x264 [info]: frame P:166866 Avg QP:19.22  size:  9073  PSNR Mean Y:43.02 U:46.75 V:47.50 Avg:43.97 Global:43.55
    x264 [info]: mb I  I16..4: 18.2%  0.0% 81.8%
    x264 [info]: mb P  I16..4:  0.6%  0.0%  1.7%  P16..4: 49.6% 26.6% 11.4%  0.0%  0.0%    skip:10.2%
    x264 [info]: coded y,uvDC,uvAC intra: 89.0% 85.1% 65.7% inter: 40.8% 29.5% 5.2%
    x264 [info]: i16 v,h,dc,p: 30% 12% 14% 43%
    x264 [info]: i4 v,h,dc,ddl,ddr,vr,hd,vl,hu: 27% 12% 18%  7%  8% 10%  6%  8%  5%
    x264 [info]: i8c dc,h,v,p: 47% 16% 28% 10%
    x264 [info]: ref P L0: 68.9% 31.1%
    x264 [info]: SSIM Mean Y:0.9729249 (15.674db)
    x264 [info]: PSNR Mean Y:43.048 U:46.773 V:47.517 Avg:43.992 Global:43.571 kb/s:1799.69

    x264 лог 720p Release

    HandBrakeCLI -i "La.Femme.Nikita.1990.1080p.BluRay.Remux.DTS.H264.Rus.French.Eng.mkv" -t 1 -o "Nikita.720p.fra.m4v" -f mp4 -4 -O -w 1280 -l 544 --crop 132:132:2:0 --modulus 16 -e x264 -b 7000 -2 -a none -x cabac=0:ref=3:me=umh:b-pyramid=none:b-adapt=2:weightb=0:trellis=0:weightp=0:vbv-maxrate=9500:vbv-bufsize=9500:subq=9:merange=32:deblock=-3,-2:qcomp=0.80:qpmin=0:qpmax=69:fast_pskip=0:aq-strength=0.5:no-dct-decimate=1:psy-rd=0.80,0.25:ipratio=1.1:pbratio=1.1:deadzone-inter=6:deadzone-intra=6 --verbose=1
    x264 [info]: frame I:1311  Avg QP:20.33  size: 88355  PSNR Mean Y:44.09 U:47.10 V:48.28 Avg:44.95 Global:44.64
    x264 [info]: frame P:49071 Avg QP:21.23  size: 60836  PSNR Mean Y:43.14 U:47.00 V:48.08 Avg:44.12 Global:43.66
    x264 [info]: frame B:118242 Avg QP:22.52  size: 25556  PSNR Mean Y:41.64 U:46.68 V:47.86 Avg:42.79 Global:42.31
    x264 [info]: consecutive B-frames:  1.3%  8.0% 22.7% 68.0%
    x264 [info]: mb I  I16..4:  6.2% 72.9% 20.9%
    x264 [info]: mb P  I16..4:  0.9% 12.4%  1.7%  P16..4: 38.2% 30.0% 13.1%  0.0%  0.0%    skip: 3.7%
    x264 [info]: mb B  I16..4:  0.1%  1.7%  0.2%  B16..8: 30.5% 12.0%  2.5%  direct:11.6%  skip:41.4%  L0:29.6% L1:30.6% BI:39.9%
    x264 [info]: 8x8 transform intra:81.8% inter:39.8%
    x264 [info]: coded y,uvDC,uvAC intra: 95.4% 71.5% 37.3% inter: 53.2% 21.7% 5.7%
    x264 [info]: i16 v,h,dc,p: 42% 15%  9% 34%
    x264 [info]: i8 v,h,dc,ddl,ddr,vr,hd,vl,hu:  9%  7% 10% 11% 15% 14% 13% 11% 10%
    x264 [info]: i4 v,h,dc,ddl,ddr,vr,hd,vl,hu: 12%  8%  3% 11% 17% 16% 13% 11%  9%
    x264 [info]: i8c dc,h,v,p: 48% 18% 23% 11%
    x264 [info]: ref P L0: 61.3% 22.5% 16.2%
    x264 [info]: ref B L0: 76.5% 23.5%
    x264 [info]: SSIM Mean Y:0.9571609 (13.682db)
    x264 [info]: PSNR Mean Y:42.097 U:46.772 V:47.930 Avg:43.192 Global:42.681 kb/s:6964.75

    Скриншоты 480p Release

    Скриншоты 720p Release

    Цитата:
    Цитата:

    Первый международный хит режиссера "Леона" и "Пятого элемента" Люка Бессона, знаменитая экшн-драма "Её звали Никита" не только заслужила всеобщее признание своему автору, но и принесла мировую славу сыгравшей в ней блестящей троице актеров - Анн Парийо , Чеки Карио и Жану Рено . За роль в этом великолепном фильме Анн Парийо была удостоена высшей французской кинопремии "Сезар".
    -

    Релиз подготовлен для просмотра на Apple TV, iPad, iPhone, iPod Touch.
    Для просмотра данного релиза на компьютере с ОС Windows рекомендуется использовать VLC media player
    Скачать .torrent

    Скачать торрент-файл бесплатно и на максимальной скорости!

    Как скачивать? · Что такое торрент? · Рейтинг и ограничения

    !ВНИМАНИЕ!
    Сайт не распространяет и не хранит электронные версии произведений, а занимается лишь лишь предоставлением доступа к создаваемому пользователями каталогу ссылок на торрент-файлы, которые содержат только списки хеш-сумм, убедительная просьба с жалобами обращаться напрямую к пользователю. Файлы для обмена на трекере предоставлены пользователями сайта, и администрация не несёт ответственности за их содержание. Просьба не заливать файлы, защищенные авторскими правами, а также файлы нелегального содержания!


    _________________
    [Профиль] [ЛС]
    Показать сообщения:    
    Ответить на тему

    Текущее время: Сегодня, в 22:17

    Часовой пояс: GMT + 2



    Вы не можете начинать темы
    Вы не можете отвечать на сообщения
    Вы не можете редактировать свои сообщения
    Вы не можете удалять свои сообщения
    Вы не можете голосовать в опросах
    Вы не можете прикреплять файлы к сообщениям
    Вы не можете скачивать файлы