BitTorrentTracker PerecTracker.org
BitTorrentTracker PerecTracker.org
    
Регистрация  ·  Вход
 
 · 
Забыли пароль?

  • Первоклассница (Илья Фрэз) [1948, Детский, семейный, приключения, DVDRip]

    Ответить на тему
     
    Автор Сообщение

    Flirldrerve

    Создавать темы 16-Апр-2016 20:05

           

    [Цитировать]

    Первоклассница-Жанр: Детский, семейный, приключения
    Год выпуска: 1948
    Продолжительность: 01:07:31-Режиссёр: Илья Фрэз
    Сценарий: Евгений Шварц-Актёры: Тамара Макарова, Татьяна Барышева, Наталья Защипина, Кира Головко, Валентина Кибардина, Степан Каюков, Мария Яроцкая, Елена Егорова, Кира Иванова, Елена Таранова, Тамара Вихман, Игорь Ерошкин, Елена Максимова, Георгий Милляр, Ростислав Плятт, Владимир Уральский, и др.-Аннотация: Замечательный детский фильм о том, как благодаря опытной учительнице и подружкам-одноклассницам, Маруся Орлова превратилась из дошкольницы в первоклассницу, а потом ещё и в дисциплинированную ученицу, отлично закончившую первый класс...--Качество видео: DVDRip Первоклассница (Илья Фрэз) [1948, детский, семейный, приключения, DVD5]
    Формат видео: AVI
    -Видео: XviD 67 MPEG-4, 688x528 (4:3) 25.000 fps, ~1415 kbps avg, 0.156 bit/pixel
    Аудио: MP-3 dual-channel mono, CBR 128 kbps 2 ch, 48.0 KHz

    MediaInfo

    ОбщееПолное имя : S:\Pervoklassnitsa_1948_DVDRip_[perectracker.org].aviФормат : AVIФормат/Информация : Audio Video InterleaveРазмер файла : 750 МбайтПродолжительность : 1 ч. 7 м.Общий поток : 1553 Кбит/секНазвание фильма : Pervoklassnitsa_1948_DVDRip_[perectracker.org]Режиссёр : OGORODNIKOFFFЖанр : Фильм детям, приключенияПрограмма кодирования : VirtualDubMod 1.5.10.3 | www.virtualdub-fr.org || (build 2550/release)Формат оригинала/Имя : Детский отечественный фильмПравообладатель : [url=profile.php?mode=viewprofile&u=38116300]http://perectracker.org/profile.php?mode=viewprofil...[/url]Примечание : Рип подготовлен 16 апреля 2016 года
    ВидеоИдентификатор : 0Формат : MPEG-4 VisualПрофиль формата : Advanced Simple@L5Параметр BVOP формата : 1Параметр QPel формата : НетПараметр GMC формата : Без точки переходаПараметр матрицы формата : Default (H.263)Идентификатор кодека : DX50Идентификатор кодека/Подсказка : DivX 5Продолжительность : 1 ч. 7 м.Битрейт : 1415 Кбит/секШирина : 688 пикселейВысота : 528 пикселейСоотношение сторон : 4:3Частота кадров : 25,000 кадров/секЦветовое пространство : YUVСубдискретизация насыщенности : 4:2:0Битовая глубина : 8 битТип развёртки : ПрогрессивнаяМетод сжатия : С потерямиБит/(Пиксели*Кадры) : 0.156Размер потока : 683 Мбайт (91%)Библиотека кодирования : XviD 67
    АудиоИдентификатор : 1Формат : MPEG AudioВерсия формата : Version 1Профиль формата : Layer 3Режим : Joint stereoРасширение режима : MS StereoИдентификатор кодека : 55Идентификатор кодека/Подсказка : MP3Продолжительность : 1 ч. 7 м.Вид битрейта : ПостоянныйБитрейт : 128 Кбит/секКаналы : 2 каналаЧастота : 48,0 КГцМетод сжатия : С потерямиРазмер потока : 61,8 Мбайт (8%)Выравнивание : Соединение по промежуткамПродолжительность промежутка : 40 мс. (1,00 видеокадр)Время предзагрузки промежутка : 504 мс.Библиотека кодирования : LAME3.99rНастройки программы : -m j -V 4 -q 3 -lowpass 17 -b 128

    Скриншот c названием фильма

    Скриншоты

    Время раздачи - по возможности.
    Скачать .torrent

    Скачать торрент-файл бесплатно и на максимальной скорости!

    Как скачивать? · Что такое торрент? · Рейтинг и ограничения

    !ВНИМАНИЕ!
    Сайт не распространяет и не хранит электронные версии произведений, а занимается лишь лишь предоставлением доступа к создаваемому пользователями каталогу ссылок на торрент-файлы, которые содержат только списки хеш-сумм, убедительная просьба с жалобами обращаться напрямую к пользователю. Файлы для обмена на трекере предоставлены пользователями сайта, и администрация не несёт ответственности за их содержание. Просьба не заливать файлы, защищенные авторскими правами, а также файлы нелегального содержания!


    _________________
    [Профиль] [ЛС]

    -746

    Создавать темы 24-Апр-2016 00:13 (спустя 7 дней)

           

    Топик был перенесен из форума Наше кино в форум Детские отечественные фильмы


    -sasha2006

    _________________
    Как бы ты высоко не летал, не забывай, с кем ты ползал..
     
    Показать сообщения:    
    Ответить на тему

    Текущее время: Сегодня, в 03:15

    Часовой пояс: GMT + 2



    Вы не можете начинать темы
    Вы не можете отвечать на сообщения
    Вы не можете редактировать свои сообщения
    Вы не можете удалять свои сообщения
    Вы не можете голосовать в опросах
    Вы не можете прикреплять файлы к сообщениям
    Вы не можете скачивать файлы