Register  ·  Log in
Forgot password?

  • Хард Ребут / Режиссерская версия Noize MC Hard Reboot (Андрей Кудиненко) [2013, Психоделический триллер, ужасы, биография, HDRip, AVC]

    Reply to topic
    Author Message


    Post 16-Apr-2016 16:53



    Хард Ребут (Режиссерская версия)
    Жанр: Психоделический триллер, ужасы, биография
    Год выпуска: 2013
    Продолжительность: 01:08:00
    Режиссёр: Андрей Кудиненко
    В ролях: Noize MC: Иван Алексеев, Максим Крамар, Павел Тетерин, Александр Кислинский;
    Федор Живалевский, Дарьяна Лукашова
    Описание: Фильм о жизни группы. Об их кризисе и разладе. Фильм повествует реальную историю, которая происходила и должна была закончиться, если бы не некоторые события, изменившие все.
    Доп. информация: Фильм не выходил официально. Текущая версия получена из инсайдерского источника и является чем-то вроде режиссерской версии. Файл никак не обрабатывался и был получен в таком формате и размере, как представлен в раздаче. Ничего не изменялось и это оригинальная копия, которая, вероятнее всего никогда не выйдет официально в свет, т.к. Ваня против. Посмотрите фильм, и вероятно, вы поймете, почему.
    Качество видео: HDRip
    Формат видео: MP4
    Видео: MPEG4 Video (H264) 1920x1080 25fps 4496kbps [V: Mainconcept MP4 Video Media Handler [eng] (h264 baseline L4.0, yuv420p, 1920x1080, 4496 kb/s)]
    Аудио: AAC 48000Hz stereo 157kbps [A: Mainconcept MP4 Sound Media Handler [eng] (aac lc, 48000 Hz, stereo, 157 kb/s)]


    Complete name : X:\Downloads\HardReboot.mp4
    Format : MPEG-4
    Codec ID : M4V
    File size : 2.21 GiB
    Duration : 1h 7mn
    Overall bit rate mode : Variable
    Overall bit rate : 4 660 Kbps
    Encoded date : UTC 2013-12-16 21:59:58
    Tagged date : UTC 2013-12-16 21:59:58
    ©TIM : 00:00:00:00
    ©TSC : 25
    ©TSZ : 1
    ID : 1
    Format : AVC
    Format/Info : Advanced Video Codec
    Format profile : Baseline@L4
    Format settings, CABAC : No
    Format settings, ReFrames : 2 frames
    Format settings, GOP : M=1, N=75
    Codec ID : avc1
    Codec ID/Info : Advanced Video Coding
    Duration : 1h 7mn
    Bit rate : 4 496 Kbps
    Width : 1 920 pixels
    Height : 1 080 pixels
    Display aspect ratio : 16:9
    Frame rate mode : Variable
    Frame rate : 25.000 fps
    Minimum frame rate : 25.000 fps
    Maximum frame rate : 25.025 fps
    Standard : PAL
    Color space : YUV
    Chroma subsampling : 4:2:0
    Bit depth : 8 bits
    Scan type : Progressive
    Bits/(Pixel*Frame) : 0.087
    Stream size : 2.14 GiB (96%)
    Language : English
    Encoded date : UTC 2013-12-16 21:59:58
    Tagged date : UTC 2013-12-16 21:59:58
    Color range : Limited
    mdhd_Duration : 4079920
    ID : 2
    Format : AAC
    Format/Info : Advanced Audio Codec
    Format profile : LC
    Codec ID : 40
    Duration : 1h 7mn
    Source duration : 1h 7mn
    Bit rate mode : Variable
    Bit rate : 157 Kbps
    Maximum bit rate : 257 Kbps
    Channel(s) : 2 channels
    Channel positions : Front: L R
    Sampling rate : 48.0 KHz
    Compression mode : Lossy
    Stream size : 76.5 MiB (3%)
    Source stream size : 76.5 MiB (3%)
    Language : English
    Encoded date : UTC 2013-12-16 21:59:58
    Tagged date : UTC 2013-12-16 21:59:58
    mdhd_Duration : 4079957

    Скриншот с названием фильма


    Download .torrent

    Download free and at maximum speed!

    How to Download? · What is a torrent? · Ratings and Limitations

    The site does not extend and does not store electronic(digital) versions of products, and only gives access to a reference catalogue created by users on torrent-files which contain only lists of the hash-sums, the earnest entreaty, with complaints(abuse) to access directly to the user. Files for an exchange on tracker are given by users of a site, and the administration does not bear the responsibility for their maintenance. The request to not fill in the files protected by copyrights, and also files of the illegal maintenance!

    [Profile] [PM]
    Display posts from previous:    
    Reply to topic

    The time now is: Today 18:00

    All times are GMT + 3 Hours

    You cannot post new topics in this forum
    You cannot reply to topics in this forum
    You cannot edit your posts in this forum
    You cannot delete your posts in this forum
    You cannot vote in polls in this forum
    You cannot attach files in this forum
    You cannot download files in this forum