BitTorrentTracker PerecTracker.org
BitTorrentTracker PerecTracker.org
    
Регистрация  ·  Вход
 
 · 
Забыли пароль?

  • Деревня проклятых / Village of the Damned (Джон Карпентер / John Carpent) [1995, США, ужасы, BDRemux 1080p] 2x MVO (R5, СТС) + DVO (Премьер Видео) + 2x AVO (Ю.Живов, П.Карцев) + Ukr + Sub Rus, Eng + Original Eng

    Ответить на тему
     
    Автор Сообщение

    Light

    Создавать темы 16-Апр-2016 15:53

           

    [Цитировать]

    -Деревня проклятых / Village of the Damned-Страна: США
    Жанр: Ужасы
    Год выпуска: 1995
    Продолжительность: 01:38:00-Перевод 1: Профессиональный (многоголосый закадровый) R5
    Перевод 2: Профессиональный (многоголосый закадровый) СТС
    Перевод 3: Профессиональный (двухголосый закадровый) Премьер Видео
    Перевод 4: Авторский (одноголосый закадровый) Ю.Живов
    Перевод 5: Авторский (одноголосый закадровый) П.Карцев
    Cубтитры: русские, английские
    Оригинальная аудиодорожка: английский-Режиссер: Джон Карпентер / John Carpent
    В ролях: Кристофер Рив, Кёрсти Элли, Линда Козловски, Майкл Паре, Мередит Сэленджер, Марк Хэмилл-Описание: В канун праздника жители деревеньки Мидвич вдруг попадали замертво и пролежали, не подавая признаков жизни, с 10 утра до 16 вечера, после чего все, включая животных, встали как ни в чем не бывало. Спустя некоторое время женщины деревни забеременели. Правительство, знающее о подобных случаях в других странах (там, правда, новорожденные умерли), предложило сделать аборты, но женщины дружно отказались, и для наблюдения была оставлена эпидемиолог Сьюзен Вернер. Дети появились на свет одновременно, однако счастья родителям не принесли. Оказавшиеся порождением злобных пришельцев, они должны были уничтожить всех землян, чтобы оставить за собой эту ещё вполне прилично сохранившуюся планету. (Иванов М.)-Сэмпл-Тип релиза: BDRemux 1080p
    Контейнер: MKV
    Видео: MPEG-4 AVC Video / 35000 kbps / 1080p / 23.976 fps / 16:9 / High Profile 4.1
    Аудио 1: Russian / DTS-HD Master Audio / 5.1 / 48 kHz / 4267 kbps / 24-bit (DTS Core: 5.1 / 48 kHz / 1509 kbps / 24-bit) |Многоголосый закадровый, R5|
    Аудио 2: Russian: 48 kHz, AC3, 2.0 ch, 256 kbps |Многоголосый закадровый, СТС|
    Аудио 3: Russian: 48 kHz, AC3, 2.0 ch, 192 kbps |Двухголосый закадровый, Премьер Видео|
    Аудио 4: Russian / DTS-HD Master Audio / 5.1 / 48 kHz / 4259 kbps / 24-bit (DTS Core: 5.1 / 48 kHz / 1509 kbps / 24-bit) |Одноголосый закадровый, Ю.Живов|
    Аудио 5: Russian: 48 kHz, AC3, 2.0 ch, 192 kbps |Одноголосый закадровый, П.Карцев|
    Аудио 6: English / DTS-HD Master Audio / 5.1 / 48 kHz / 4247 kbps / 24-bit (DTS Core: 5.1 / 48 kHz / 1509 kbps / 24-bit)
    Аудио 7: Ukrainian: 48 kHz, AC3, 2.0 ch, 192 kbps |Двухголосый закадровый, 1+1/НЛО-TV|
    Формат субтитров: softsub (SRT)

    MI

    GeneralUnique ID : 252524709071858219741225259627359654843 (0xBDFA7D696CF2C97184150206305653BB)Complete name : P:\[По режиссерам]\+ John Carpenter\Деревня проклятых (1995. Village Of The Damned).mkvFormat : MatroskaFormat version : Version 4 / Version 2File size : 32.5 GiBDuration : 1h 38mnOverall bit rate : 47.5 MbpsMovie name : Release for RuTrackerEncoded date : UTC 2016-04-14 21:30:48Writing application : mkvmerge v9.0.1 ('Obstacles') 64bitWriting library : libebml v1.3.3 + libmatroska v1.4.4Cover : YesAttachments : cover.jpg
    VideoID : 1Format : AVCFormat/Info : Advanced Video CodecFormat profile : High@L4.1Format settings, CABAC : YesFormat settings, ReFrames : 4 framesFormat settings, GOP : M=3, N=12Codec ID : V_MPEG4/ISO/AVCDuration : 1h 38mnBit rate mode : ConstantBit rate : 35.0 MbpsWidth : 1 920 pixelsHeight : 1 080 pixelsDisplay aspect ratio : 16:9Frame rate mode : ConstantFrame rate : 23.976 (24000/1001) fpsColor space : YUVChroma subsampling : 4:2:0Bit depth : 8 bitsScan type : ProgressiveBits/(Pixel*Frame) : 0.704Stream size : 23.2 GiB (71%)Title : Village of the Damned 1995 1080p Blu-ray AVC DTS-HD MA 5.1-KarloffLanguage : EnglishDefault : YesForced : No
    Audio #1ID : 2Format : DTSFormat/Info : Digital Theater SystemsFormat profile : MA / CoreMode : 16Format settings, Endianness : BigCodec ID : A_DTSDuration : 1h 37mnBit rate mode : Variable / ConstantBit rate : 4 267 Kbps / 1 509 KbpsChannel(s) : 6 channelsChannel positions : Front: L C R, Side: L R, LFESampling rate : 48.0 KHzFrame rate : 93.750 fps (512 spf)Bit depth : 24 bitsCompression mode : Lossless / LossyStream size : 2.92 GiB (9%)Title : MVO [R5]Language : RussianDefault : YesForced : No
    Audio #2ID : 3Format : AC-3Format/Info : Audio Coding 3Mode extension : CM (complete main)Format settings, Endianness : BigCodec ID : A_AC3Duration : 1h 37mnBit rate mode : ConstantBit rate : 256 KbpsChannel(s) : 2 channelsChannel positions : Front: L RSampling rate : 48.0 KHzFrame rate : 31.250 fps (1536 spf)Compression mode : LossyStream size : 179 MiB (1%)Title : MVO [СТС]Language : RussianDefault : NoForced : No
    Audio #3ID : 4Format : AC-3Format/Info : Audio Coding 3Mode extension : CM (complete main)Format settings, Endianness : BigCodec ID : A_AC3Duration : 1h 37mnBit rate mode : ConstantBit rate : 192 KbpsChannel(s) : 2 channelsChannel positions : Front: L RSampling rate : 48.0 KHzFrame rate : 31.250 fps (1536 spf)Compression mode : LossyStream size : 135 MiB (0%)Title : DVO [Премьер Видео]Language : RussianDefault : NoForced : No
    Audio #4ID : 5Format : DTSFormat/Info : Digital Theater SystemsFormat profile : MA / CoreMode : 16Format settings, Endianness : BigCodec ID : A_DTSDuration : 1h 37mnBit rate mode : Variable / ConstantBit rate : 4 259 Kbps / 1 509 KbpsChannel(s) : 6 channelsChannel positions : Front: L C R, Side: L R, LFESampling rate : 48.0 KHzFrame rate : 93.750 fps (512 spf)Bit depth : 24 bitsCompression mode : Lossless / LossyStream size : 2.92 GiB (9%)Title : Юрий ЖивовLanguage : RussianDefault : NoForced : No
    Audio #5ID : 6Format : AC-3Format/Info : Audio Coding 3Mode extension : CM (complete main)Format settings, Endianness : BigCodec ID : A_AC3Duration : 1h 37mnBit rate mode : ConstantBit rate : 192 KbpsChannel(s) : 2 channelsChannel positions : Front: L RSampling rate : 48.0 KHzFrame rate : 31.250 fps (1536 spf)Compression mode : LossyStream size : 135 MiB (0%)Title : Петр КарцевLanguage : RussianDefault : NoForced : No
    Audio #6ID : 7Format : DTSFormat/Info : Digital Theater SystemsFormat profile : MA / CoreMode : 16Format settings, Endianness : BigCodec ID : A_DTSDuration : 1h 37mnBit rate mode : Variable / ConstantBit rate : 4 247 Kbps / 1 509 KbpsChannel(s) : 6 channelsChannel positions : Front: L C R, Side: L R, LFESampling rate : 48.0 KHzFrame rate : 93.750 fps (512 spf)Bit depth : 24 bitsCompression mode : Lossless / LossyStream size : 2.91 GiB (9%)Language : EnglishDefault : NoForced : No
    Audio #7ID : 8Format : AC-3Format/Info : Audio Coding 3Mode extension : CM (complete main)Format settings, Endianness : BigCodec ID : A_AC3Duration : 1h 37mnBit rate mode : ConstantBit rate : 192 KbpsChannel(s) : 2 channelsChannel positions : Front: L RSampling rate : 48.0 KHzFrame rate : 31.250 fps (1536 spf)Compression mode : LossyStream size : 135 MiB (0%)Title : DVO [1+1/НЛО-TV]Language : UkrainianDefault : NoForced : No
    Text #1ID : 9Format : UTF-8Codec ID : S_TEXT/UTF8Codec ID/Info : UTF-8 Plain TextDuration : 1h 31mnBit rate : 64 bpsCount of elements : 703Stream size : 43.5 KiB (0%)Language : RussianDefault : NoForced : No
    Text #2ID : 10Format : UTF-8Codec ID : S_TEXT/UTF8Codec ID/Info : UTF-8 Plain TextDuration : 1h 29mnBit rate : 37 bpsCount of elements : 757Stream size : 24.9 KiB (0%)Language : EnglishDefault : NoForced : No
    Text #3ID : 11Format : UTF-8Codec ID : S_TEXT/UTF8Codec ID/Info : UTF-8 Plain TextDuration : 1h 31mnBit rate : 39 bpsCount of elements : 831Stream size : 26.5 KiB (0%)Title : SDHLanguage : EnglishDefault : NoForced : No
    Menu00:00:00.000 : en:00:00:00.00000:08:05.276 : en:00:08:05.27600:16:17.518 : en:00:16:17.51800:24:24.002 : en:00:24:24.00200:33:26.961 : en:00:33:26.96100:39:42.045 : en:00:39:42.04500:48:05.797 : en:00:48:05.79700:56:01.565 : en:00:56:01.56501:04:20.648 : en:01:04:20.64801:13:27.152 : en:01:13:27.15201:19:34.394 : en:01:19:34.39401:26:17.921 : en:01:26:17.921
    Скриншоты

    Зеркало


    Цитата:
    Цитата:

    • Релиз . Спасибо Spiellberg!
    • Дорожки №1,4 получены путем наложения выделенных/чистых голосов на центральный канал оригинального DTS-HD MA.
    • За дорожку Премьер спасибо Ansent, за СТС спасибо xfiles, за украинскую спс трекеру Hurtom.
    • За оригинальный BD спасибо Karloff!
    • Сохранены оригинальные чаптеры как на Blu-ray.
    Скачать .torrent

    Скачать торрент-файл бесплатно и на максимальной скорости!

    Как скачивать? · Что такое торрент? · Рейтинг и ограничения

    !ВНИМАНИЕ!
    Сайт не распространяет и не хранит электронные версии произведений, а занимается лишь лишь предоставлением доступа к создаваемому пользователями каталогу ссылок на торрент-файлы, которые содержат только списки хеш-сумм, убедительная просьба с жалобами обращаться напрямую к пользователю. Файлы для обмена на трекере предоставлены пользователями сайта, и администрация не несёт ответственности за их содержание. Просьба не заливать файлы, защищенные авторскими правами, а также файлы нелегального содержания!


    _________________
    [Профиль] [ЛС]
    Показать сообщения:    
    Ответить на тему

    Текущее время: Сегодня, в 08:04

    Часовой пояс: GMT + 2



    Вы не можете начинать темы
    Вы не можете отвечать на сообщения
    Вы не можете редактировать свои сообщения
    Вы не можете удалять свои сообщения
    Вы не можете голосовать в опросах
    Вы не можете прикреплять файлы к сообщениям
    Вы не можете скачивать файлы