BitTorrentTracker PerecTracker.org
BitTorrentTracker PerecTracker.org
    
Регистрация  ·  Вход
 
 · 
Забыли пароль?

  • Девушка без комплексов / Trainwreck (Джудд Апатоу / Judd Apatow) [2015, США, мелодрама, комедия, HDRip] [Театральная версия / Theatrical Cut] Dub

    Ответить на тему
     
    Автор Сообщение

    Light

    Создавать темы 16-Апр-2016 15:53

           

    [Цитировать]

    Девушка без комплексов / Trainwreck«Театральная версия / Theatrical Cut»Страна: США
    Жанр: мелодрама, комедия
    Год выпуска: 2015
    Продолжительность: 02:04:45
    Перевод: Профессиональный (дублированный)
    Cубтитры: нет
    Оригинальная аудиодорожка: нет
    Режиссер: Джудд Апатоу / Judd Apatow
    В ролях: Эми Бет Шумер, Билл Хейдер, Бри Ларсон, Колин Куинн, Джон Сина, Ванесса Байер, Майк Бирбиглия, Эзра Миллер, Дэйв Аттелль, Тильда Суинтон, Леброн Джеймс, Девин Фабри, Карла Оудин, Джош Сегарра, Райан Фаррелл, Роберт Е. Торрес, Джим Флорентайн, Бобби Келли, Дэн Содер, Рэндолл Парк
    Описание: У симпатичной девушки Эми никогда не было серьезных отношений. Она придерживается свободных взглядов и обычно не ходит дважды с одним парнем на свидание. Будучи сотрудницей крупного мужского издания, она получает задание от шефа написать статью о спортивном враче Ароне. Эми и не рассчитывала, что деловая встреча с доктором изменит ее жизнь.
    Группа
    желает всем приятного просмотра!Качество видео: HDRip / BDRip (1080p)
    Формат видео: AVI
    Видео: 720x304 (2.37:1), 23.976 fps, XviD build 65 ~1233 kbps avg, 0.23 bit/pixel
    Аудио : 48 kHz, AC3 Dolby Digital, 3/2 (L,C,R,l,r) + LFE ch, ~448 kbps

    Сравнениеhttp://perectracker.org/http://perectracker.org/viewtopic.php?t=5110778
    http://screenshotcomparison.com/comparison/169624/picture:3MediaInfo
    General
    Complete name : D:\Торренты\Trainwreck_Drek_Rutracker.org.avi
    Format : AVI
    Format/Info : Audio Video Interleave
    File size : 1.47 GiB
    Duration : 2h 4mn
    Overall bit rate : 1 691 Kbps
    Writing application : VirtualDubMod 1.5.10.2 (build 2540/release)
    Writing library : VirtualDubMod build 2540/release
    Video
    ID : 0
    Format : MPEG-4 Visual
    Format profile : Advanced Simple@L5
    Format settings, BVOP : 1
    Format settings, QPel : No
    Format settings, GMC : No warppoints
    Format settings, Matrix : Custom
    Codec ID : XVID
    Codec ID/Hint : XviD
    Duration : 2h 4mn
    Bit rate : 1 234 Kbps
    Width : 720 pixels
    Height : 304 pixels
    Display aspect ratio : 2.35:1
    Frame rate : 23.976 (24000/1001) fps
    Color space : YUV
    Chroma subsampling : 4:2:0
    Bit depth : 8 bits
    Scan type : Progressive
    Compression mode : Lossy
    Bits/(Pixel*Frame) : 0.235
    Stream size : 1.07 GiB (73%)
    Writing library : XviD 65
    Audio
    ID : 1
    Format : AC-3
    Format/Info : Audio Coding 3
    Mode extension : CM (complete main)
    Format settings, Endianness : Big
    Codec ID : 2000
    Duration : 2h 4mn
    Bit rate mode : Constant
    Bit rate : 448 Kbps
    Channel(s) : 6 channels
    Channel positions : Front: L C R, Side: L R, LFE
    Sampling rate : 48.0 KHz
    Frame rate : 31.250 fps (1536 spf)
    Compression mode : Lossy
    Stream size : 399 MiB (26%)
    Alignment : Split accross interleaves
    Interleave, duration : 42 ms (1.00 video frame)
    Interleave, preload duratio : 500 ms
    Скриншоты
    Скачать .torrent

    Скачать торрент-файл бесплатно и на максимальной скорости!

    Как скачивать? · Что такое торрент? · Рейтинг и ограничения

    !ВНИМАНИЕ!
    Сайт не распространяет и не хранит электронные версии произведений, а занимается лишь лишь предоставлением доступа к создаваемому пользователями каталогу ссылок на торрент-файлы, которые содержат только списки хеш-сумм, убедительная просьба с жалобами обращаться напрямую к пользователю. Файлы для обмена на трекере предоставлены пользователями сайта, и администрация не несёт ответственности за их содержание. Просьба не заливать файлы, защищенные авторскими правами, а также файлы нелегального содержания!


    _________________
    [Профиль] [ЛС]
    Показать сообщения:    
    Ответить на тему

    Текущее время: Сегодня, в 10:18

    Часовой пояс: GMT + 2



    Вы не можете начинать темы
    Вы не можете отвечать на сообщения
    Вы не можете редактировать свои сообщения
    Вы не можете удалять свои сообщения
    Вы не можете голосовать в опросах
    Вы не можете прикреплять файлы к сообщениям
    Вы не можете скачивать файлы