BitTorrentTracker PerecTracker.org
BitTorrentTracker PerecTracker.org
    
Регистрация  ·  Вход
 
 · 
Забыли пароль?

  • Восхождение Юпитер / Jupiter Ascending (Энди Вачовски / Andy Wachowski, Лана Вачовски / Lana Wachowski) [2015 г., США, фантастика, фэнтези, боевик, приключения, HDRip-AVC] Dub + Sub (Rus, Eng)

    Ответить на тему
     
    Автор Сообщение

    Light

    Создавать темы 16-Апр-2016 15:53

           

    [Цитировать]

    -Восхождение Юпитер / Jupiter Ascending--Год выпуска: 2015Страна: СШАЖанр: фантастика, фэнтези, боевик, приключения-Продолжительность: 02:07:34Перевод: Профессиональный (дублированный) [лицензия]Субтитры: (русские, английские)--Режиссер:Энди Вачовски / Andy Wachowski, Лана Вачовски / Lana Wachowski-В ролях:Ченнинг Татум, Мила Кунис, Шон Бин, Эдди Редмэйн, Дуглас Бут, Таппенс Мидлтон, Никки Амука-Бёрд, Кристина Коул, Николас А. Ньюман, Рамон Тикарам...-Описание:
    Юпитер Джонс родилась под ночным небом, и все знаки предсказывали, что девочке предстоят великие свершения. Юпитер выросла и каждый день видит во сне звезды, но просыпается в жесткой реальности, где она работает уборщицей и моет туалеты. Личная жизнь Юпитер тоже оставляет желать лучшего, пока девушка не встречает Кейна. Кейн, бывший военный охотник, прибывает на Землю, чтобы отыскать Юпитер и раскрыть девушке ее истинное предназначение. Благодаря своим генетическим особенностям Юпитер становится претенденткой невероятного наследия, способного изменить равновесие во Вселенной.
    --Дополнительная информация:-
    -Сэмпл Рип НЕ совместим с бытовыми DVD-проигрывателями.
    Звуковую дорожку с AVO (Ю. Живов) , можно скачать отдельным файлом: здесь--Качество видео: HDRip-AVC (Исходник: BDRip 1080p / Talian70 )
    Формат видео: MKV
    Видео: AVC (x264), 940x392 (2.4:1), 23.976 fps, ~1192kbps avg, 0.135 bit/pixel
    Аудио: 48 kHz, AC3 Dolby Digital, 3/2 (L,C,R,l,r) + LFE ch, 448 kbps (Дубляж)
    Главы: есть-

    Скриншоты



    MediaInfo/log

    log

    x264 [info]: frame I:1677 Avg QP:16.29 size: 37400
    x264 [info]: frame P:41726 Avg QP:19.51 size: 12437
    x264 [info]: frame B:140117 Avg QP:20.63 size: 3987
    x264 [info]: consecutive B-frames: 2.9% 3.3% 6.8% 30.2% 14.2% 26.0% 6.5% 8.5% 0.8% 0.4% 0.1% 0.1% 0.0% 0.0% 0.0% 0.0% 0.2%
    x264 [info]: mb I I16..4: 6.0% 68.8% 25.2%
    x264 [info]: mb P I16..4: 1.6% 11.0% 2.2% P16..4: 32.8% 36.1% 9.9% 0.0% 0.0% skip: 6.3%
    x264 [info]: mb B I16..4: 0.2% 1.2% 0.2% B16..8: 34.6% 18.4% 2.6% direct: 3.6% skip:39.2% L0:41.4% L1:48.8% BI: 9.8%
    x264 [info]: 8x8 transform intra:73.8% inter:58.7%
    x264 [info]: direct mvs spatial:96.8% temporal:3.2%
    x264 [info]: coded y,uvDC,uvAC intra: 77.1% 76.0% 45.3% inter: 14.8% 13.2% 4.8%
    x264 [info]: i16 v,h,dc,p: 16% 13% 5% 65%
    x264 [info]: i8 v,h,dc,ddl,ddr,vr,hd,vl,hu: 10% 6% 5% 10% 14% 13% 14% 12% 15%
    x264 [info]: i4 v,h,dc,ddl,ddr,vr,hd,vl,hu: 11% 7% 6% 10% 15% 13% 14% 11% 15%
    x264 [info]: i8c dc,h,v,p: 34% 27% 19% 19%
    x264 [info]: Weighted P-Frames: Y:6.0% UV:3.8%
    x264 [info]: ref P L0: 56.4% 6.9% 14.7% 6.9% 5.0% 3.8% 3.0% 1.7% 1.4% 0.2% 0.0%
    x264 [info]: ref B L0: 78.4% 11.3% 4.8% 2.2% 1.5% 1.1% 0.6% 0.2%
    x264 [info]: ref B L1: 93.3% 6.7%
    x264 [info]: kb/s:1191.87
    General
    Unique ID : 211809079915660000901507243071369104264 (0x9F58F1E842C0D4B6A6C20396FAAFCB88)
    Complete name :\Voschozchdenie_Jupiter_(2015).HDRip-AVC.ac3.Dub.sub_[All.Films][RG].mkv
    Format : Matroska
    Format version : Version 4 / Version 2
    File size : 1.46 GiB
    Duration : 2h 7mn
    Overall bit rate : 1 642 Kbps
    Movie name : Восхождение Юпитер / Jupiter Ascending (2015) HDRip-AVC | <VIRUS>[perectracker.org][All.Films][RG]
    Encoded date : UTC 2015-06-01 14:23:06
    Writing application : mkvmerge v7.5.0 ('Glass Culture') 32bit built on Jan 10 2015 09:41:31
    Writing library : libebml v1.3.1 + libmatroska v1.4.2
    DURATION : 02:06:50.103000000
    NUMBER_OF_FRAMES : 1590
    NUMBER_OF_BYTES : 49306
    _STATISTICS_WRITING_APP : mkvmerge v7.5.0 ('Glass Culture') 32bit built on Jan 10 2015 09:41:31
    _STATISTICS_WRITING_DATE_UT : 2015-06-01 14:23:06
    _STATISTICS_TAGS : BPS DURATION NUMBER_OF_FRAMES NUMBER_OF_BYTES
    Video
    ID : 1
    Format : AVC
    Format/Info : Advanced Video Codec
    Format profile : High@L4.1
    Format settings, CABAC : Yes
    Format settings, ReFrames : 9 frames
    Codec ID : V_MPEG4/ISO/AVC
    Duration : 2h 7mn
    Bit rate : 1 192 Kbps
    Width : 940 pixels
    Height : 392 pixels
    Display aspect ratio : 2.40:1
    Frame rate mode : Constant
    Frame rate : 23.976 fps
    Color space : YUV
    Chroma subsampling : 4:2:0
    Bit depth : 8 bits
    Scan type : Progressive
    Bits/(Pixel*Frame) : 0.135
    Stream size : 1.03 GiB (71%)
    Writing library : x264 core 144 r2525 40bb568
    Encoding settings : cabac=1 / ref=9 / deblock=1:-2:-1 / analyse=0x3:0x113 / me=umh / subme=11 / psy=1 / psy_rd=1.00:0.00 / mixed_ref=1 / me_range=38 / chroma_me=1 / trellis=2 / 8x8dct=1 / cqm=0 / deadzone=21,11 / fast_pskip=0 / chroma_qp_offset=-2 / threads=6 / lookahead_threads=1 / sliced_threads=0 / nr=0 / decimate=0 / interlaced=0 / bluray_compat=0 / constrained_intra=0 / bframes=16 / b_pyramid=2 / b_adapt=2 / b_bias=0 / direct=3 / weightb=1 / open_gop=0 / weightp=2 / keyint=240 / keyint_min=23 / scenecut=40 / intra_refresh=0 / rc_lookahead=60 / rc=2pass / mbtree=0 / bitrate=1192 / ratetol=1.0 / qcomp=0.60 / qpmin=10 / qpmax=51 / qpstep=4 / cplxblur=20.0 / qblur=0.5 / vbv_maxrate=50000 / vbv_bufsize=62500 / nal_hrd=none / filler=0 / ip_ratio=1.30 / pb_ratio=1.20 / aq=3:1.00 / zones=175600,183521,q=35
    Default : Yes
    Forced : No
    Audio
    ID : 2
    Format : AC-3
    Format/Info : Audio Coding 3
    Mode extension : CM (complete main)
    Format settings, Endianness : Big
    Codec ID : A_AC3
    Duration : 2h 7mn
    Bit rate mode : Constant
    Bit rate : 448 Kbps
    Channel(s) : 6 channels
    Channel positions : Front: L C R, Side: L R, LFE
    Sampling rate : 48.0 KHz
    Bit depth : 16 bits
    Compression mode : Lossy
    Stream size : 409 MiB (27%)
    Title : Дубляж
    Language : Russian
    Default : No
    Forced : No
    Text #1
    ID : 3
    Format : UTF-8
    Codec ID : S_TEXT/UTF8
    Codec ID/Info : UTF-8 Plain Text
    Title : Forced
    Language : Russian
    Default : Yes
    Forced : No
    Text #2
    ID : 4
    Format : UTF-8
    Codec ID : S_TEXT/UTF8
    Codec ID/Info : UTF-8 Plain Text
    Title : Full
    Language : Russian
    Default : No
    Forced : No
    Text #3
    ID : 5
    Format : UTF-8
    Codec ID : S_TEXT/UTF8
    Codec ID/Info : UTF-8 Plain Text
    Title : Full
    Language : English
    Default : No
    Forced : No
    Menu
    00:00:00.000 : en:00:00:00.000
    00:08:45.024 : en:00:08:45.024
    00:19:31.170 : en:00:19:31.170
    00:31:32.974 : en:00:31:32.974
    00:41:42.542 : en:00:41:42.542
    00:49:35.639 : en:00:49:35.639
    00:58:29.631 : en:00:58:29.631
    01:09:20.031 : en:01:09:20.031
    01:19:07.201 : en:01:19:07.201
    01:29:09.427 : en:01:29:09.427
    01:36:08.513 : en:01:36:08.513
    01:43:26.575 : en:01:43:26.575
    01:52:58.772 : en:01:52:58.772
    01:57:59.489 : en:01:57:59.489
    FAQ по просмотру MKV/h.264/AAC
    Скачать .torrent

    Скачать торрент-файл бесплатно и на максимальной скорости!

    Как скачивать? · Что такое торрент? · Рейтинг и ограничения

    !ВНИМАНИЕ!
    Сайт не распространяет и не хранит электронные версии произведений, а занимается лишь лишь предоставлением доступа к создаваемому пользователями каталогу ссылок на торрент-файлы, которые содержат только списки хеш-сумм, убедительная просьба с жалобами обращаться напрямую к пользователю. Файлы для обмена на трекере предоставлены пользователями сайта, и администрация не несёт ответственности за их содержание. Просьба не заливать файлы, защищенные авторскими правами, а также файлы нелегального содержания!


    _________________
    [Профиль] [ЛС]
    Показать сообщения:    
    Ответить на тему

    Текущее время: Сегодня, в 04:08

    Часовой пояс: GMT + 2



    Вы не можете начинать темы
    Вы не можете отвечать на сообщения
    Вы не можете редактировать свои сообщения
    Вы не можете удалять свои сообщения
    Вы не можете голосовать в опросах
    Вы не можете прикреплять файлы к сообщениям
    Вы не можете скачивать файлы