BitTorrentTracker PerecTracker.org
BitTorrentTracker PerecTracker.org
    
Регистрация  ·  Вход
 
 · 
Забыли пароль?

  • Совершенно секретно / Freak Out / Mesuvag Harig (Боаз Армони / Boaz Armoni) [2015, Израиль, ужасы, комедия, HDTVRip] + Sub Rus, Heb + Original Heb

    Ответить на тему
     
    Автор Сообщение

    Light

    Создавать темы 15-Апр-2016 23:16

           

    [Цитировать]

    Совершенно секретно / Freak Out / Mesuvag Harig
    Страна: Израиль
    Жанр: ужасы, комедия
    Год выпуска: 2015
    Продолжительность: 01:24:24
    Перевод: Субтитры
    Cубтитры: русские, иврит
    Оригинальная аудиодорожка: иврит
    Режиссер: Боаз Армони / Boaz Armoni
    В ролях: Итай Зволон, Кай Корабельников, Ассаф Бен-Шимон, Эран Перец, Офер Рутенберг
    Описание: Матана, молодого солдата, служба которого проходит в канцелярии, внезапно отправляют на неделю на охрану удалённого военного объекта, окружённого арабскими деревнями, на севере Израиля. По дороге к нему присоединяются ещё трое солдат из боевых частей.
    Начальник караула, Стас, под командование которого попадают прибывшие, - солдат-одиночка, у которого нет ни семьи, ни жилья. Специфика охраняемого объекта позволяет находиться на нем не более недели непрерывно. Поэтому Стас и ещё один командир сменяют друг друга каждую неделю - неделя караула, неделя дома. Но у Стаса нет дома и негде больше жить, кроме как на охраняемом объекте...
    Доп. информация: ,
    Сэмпл: http://www.mediafire.com/download/l4p6rc2yv863yd2/Sample-Freak.Out.2015.avi
    Качество видео: HDTVRip
    Формат видео: AVI
    Видео: XviD 624х352 16:9 25 кадров/сек 1020 Кбит/сек
    Аудио: MP3 48 КГц 2 канала 128 Кбит/сек
    Формат субтитров: русские: softsub (ASS), иврит (hardsub)

    Образец субтитров

    Dialogue: 0,0:20:04.28,0:20:07.99,Default,,0,0,0,,Пустая трата времени.\NЗдесь нет приёма из-за антенны.
    Dialogue: 0,0:20:08.00,0:20:10.43,Default,,0,0,0,,Она и телефоны не совместимы.
    Dialogue: 0,0:20:10.44,0:20:13.31,Default,,0,0,0,,- Это - то, что мы охраняем?\N- Это - очень важное нечто,
    Dialogue: 0,0:20:13.32,0:20:15.51,Default,,0,0,0,,которое вы, несчастные, охраняете, да.
    Dialogue: 0,0:20:15.52,0:20:17.95,Default,,0,0,0,,- А она не излучает?\N- Конечно, что за вопрос?
    Dialogue: 0,0:20:17.96,0:20:20.91,Default,,0,0,0,,Она поджаривает тебе мозги\Nи вызывает рак яиц.
    Dialogue: 0,0:20:20.92,0:20:22.55,Default,,0,0,0,,Или наоборот.
    Dialogue: 0,0:20:22.56,0:20:26.31,Default,,0,0,0,,- Так как же заставляют нас находиться здесь?\N- Что ты волнуешься?
    Dialogue: 0,0:20:26.32,0:20:27.99,Default,,0,0,0,,Армия заботится о тебе.
    Dialogue: 0,0:20:28.00,0:20:30.71,Default,,0,0,0,,Она точно знает, как влияет это дерьмо.
    Dialogue: 0,0:20:30.72,0:20:33.67,Default,,0,0,0,,Из-за этого тебе нельзя находиться здесь\Nбольше недели непрерывно.
    Dialogue: 0,0:20:33.68,0:20:37.11,Default,,0,0,0,,- А как же ты?\N- Я меняюсь каждую неделю с ещё одним.
    Dialogue: 0,0:20:37.11,0:20:42.03,Default,,0,0,0,,Девчонки рассказывали, что сержант\Nс предыдущей недели - маньяк.
    Dialogue: 0,0:20:42.04,0:20:44.87,Default,,0,0,0,,Адам.
    Dialogue: 0,0:20:44.88,0:20:48.99,Default,,0,0,0,,Он - суровый, не дружище, как я.
    Dialogue: 0,0:20:49.00,0:20:52.27,Default,,0,0,0,,Стас - добряк, Адам - нет.
    Dialogue: 0,0:20:52.28,0:20:54.71,Default,,0,0,0,,Скажи, а что это такое там?
    Dialogue: 0,0:20:54.72,0:20:57.51,Default,,0,0,0,,Это - ёмкость для воды.
    Dialogue: 0,0:20:57.52,0:21:00.99,Default,,0,0,0,,И за ней нужно наблюдать.
    Dialogue: 0,0:21:01.00,0:21:05.11,Default,,0,0,0,,Однажды пришёл сюда какой-то мальчик, араб,\Nиз одной из деревень.
    Dialogue: 0,0:21:05.11,0:21:06.43,Default,,0,0,0,,Он пришёл со своей собакой.

    MediaInfo

    Общее
    Полное имя : Freak Out.avi
    Формат : AVI
    Формат/Информация : Audio Video Interleave
    Размер файла : 700 Мбайт
    Продолжительность : 1 ч. 24 м.
    Режим общего битрейта : Переменный
    Общий поток : 1159 Кбит/сек
    Программа кодирования : VirtualDubMod 1.5.10.2 (build 2540/release)
    Библиотека кодирования : VirtualDubMod build 2540/release
    Видео
    Идентификатор : 0
    Формат : MPEG-4 Visual
    Профиль формата : Advanced Simple@L5
    Параметр BVOP формата : 2
    Параметр QPel формата : Нет
    Параметр GMC формата : Без точки перехода
    Параметр матрицы формата : Default (H.263)
    Идентификатор кодека : XVID
    Идентификатор кодека/Подсказка : XviD
    Продолжительность : 1 ч. 24 м.
    Битрейт : 1020 Кбит/сек
    Ширина : 624 пикселя
    Высота : 352 пикселя
    Соотношение сторон : 16:9
    Частота кадров : 25,000 кадров/сек
    Цветовое пространство : YUV
    Субдискретизация насыщенности : 4:2:0
    Битовая глубина : 8 бит
    Тип развёртки : Чересстрочная
    Порядок развёртки : Нижнее поле первое
    Метод сжатия : С потерями
    Бит/(Пиксели*Кадры) : 0.186
    Размер потока : 616 Мбайт (88%)
    Библиотека кодирования : XviD 64
    Аудио
    Идентификатор : 1
    Формат : MPEG Audio
    Версия формата : Version 1
    Профиль формата : Layer 3
    Режим : Joint stereo
    Идентификатор кодека : 55
    Идентификатор кодека/Подсказка : MP3
    Продолжительность : 1 ч. 24 м.
    Вид битрейта : Переменный
    Битрейт : 128 Кбит/сек
    Каналы : 2 канала
    Частота : 48,0 КГц
    Метод сжатия : С потерями
    Размер потока : 76,4 Мбайт (11%)
    Выравнивание : Соединение по промежуткам
    Продолжительность промежутка : 24 мс. (0,60 видеокадр)
    Время предзагрузки промежутка : 497 мс.
    Библиотека кодирования : LAME3.90.
    Настройки программы : -m j -V 4 -q 2 -lowpass 17.6 --abr 128

    Скриншот c названием фильма

    Скриншоты




    Скачать .torrent

    Скачать торрент-файл бесплатно и на максимальной скорости!

    Как скачивать? · Что такое торрент? · Рейтинг и ограничения

    !ВНИМАНИЕ!
    Сайт не распространяет и не хранит электронные версии произведений, а занимается лишь лишь предоставлением доступа к создаваемому пользователями каталогу ссылок на торрент-файлы, которые содержат только списки хеш-сумм, убедительная просьба с жалобами обращаться напрямую к пользователю. Файлы для обмена на трекере предоставлены пользователями сайта, и администрация не несёт ответственности за их содержание. Просьба не заливать файлы, защищенные авторскими правами, а также файлы нелегального содержания!


    _________________
    [Профиль] [ЛС]
    Показать сообщения:    
    Ответить на тему

    Текущее время: Сегодня, в 19:21

    Часовой пояс: GMT + 2



    Вы не можете начинать темы
    Вы не можете отвечать на сообщения
    Вы не можете редактировать свои сообщения
    Вы не можете удалять свои сообщения
    Вы не можете голосовать в опросах
    Вы не можете прикреплять файлы к сообщениям
    Вы не можете скачивать файлы