BitTorrentTracker PerecTracker.org
BitTorrentTracker PerecTracker.org
    
Регистрация  ·  Вход
 
 · 
Забыли пароль?

  • Храброе сердце / Ritter Rost - Eisenhart und voll verbeult (Томас Боденштайн / Thomas Bodenstein, Нина Велс / Nina Wels, Хьюберт Вейланд / Hubert Weiland) [2013, Германия, Мультфильм, приключения, HDRip] Dub + Original Eng

    Ответить на тему
     
    Автор Сообщение

    Flirldrerve

    Создавать темы 15-Апр-2016 19:04

           

    [Цитировать]

    Храброе сердце / Ritter Rost - Eisenhart und voll verbeult--Страна: Германия
    Жанр: Мультфильм, приключения
    Продолжительность: 01:23:58
    Год выпуска: 2013
    -Перевод: Профессиональный (дублированный)
    Субтитры: нет
    Режиссёры: Томас Боденштайн / Thomas Bodenstein, Нина Велс / Nina Wels, Хьюберт Вейланд / Hubert Weiland
    -В ролях:
    Рик Каваниан, Каролин Кебекус, Кристоф Мария Хербст, Том Герхардт, Детлеф Редингер, Дастин Земмельрогге, Хартмут Нойгебауер, Ульрих Фрэнк, Пьер Питерс-Арнольдс, Анита Хёфер
    -Описание:
    В одном сказочном королевстве, где есть мудрый король, прекрасная принцесса и храбрый рыцарь, как это всегда бывает в сказках, появился хитрый и коварный злодей, задумавший стать новым правителем. Единственный кто может помешать его планам — находчивый рыцарь Расти. Пусть пока у него не все получается, и многие не воспринимают его всерьез, он обязательно станет настоящим героем и вместе со своими верными друзьями спасет королевство.
    -Релиз групп All Films и RG Torrents.ru и RG Мультфильмы-Сэмпл: https://www.sendspace.com/file/v1nmv4-Качество: HDRip - Исходник (Спасибо Shellters-bob)
    Формат: AVI
    Видео: 704x400 (1.76:1), 23.976 fps, XviD build 73 ~1833 kbps avg, 0.27 bit/pixel
    Аудио: 48 kHz, AC3 Dolby Digital, 3/2 (L,C,R,l,r) + LFE ch, ~448 kbps | Dub (Спасибо -Azureus-)
    Аудио 2: 48 kHz, AC3 Dolby Digital, 2/0 (L,R) ch, ~192 kbps | Eng
    -

    Отчёт MediaInfo

    General
    Complete name : C:\Users\Максим\Desktop\Мои релизы\Ritter.Rost.2013.HDRip.polkera.avi
    Format : AVI
    Format/Info : Audio Video Interleave
    File size : 1.46 GiB
    Duration : 1h 23mn
    Overall bit rate : 2 488 Kbps
    Writing application : VirtualDubMod 1.5.10.3 | www.virtualdub-fr.org || (build 2550/release)
    Writing library : VirtualDubMod build 2550/release
    Video
    Format : MPEG-4 Visual
    Format profile : Streaming Video@L1
    Format settings, BVOP : Yes
    Format settings, QPel : No
    Format settings, GMC : No warppoints
    Format settings, Matrix : Custom
    Codec ID : XVID
    Codec ID/Hint : XviD
    Duration : 1h 23mn
    Bit rate : 1 834 Kbps
    Width : 704 pixels
    Height : 400 pixels
    Display aspect ratio : 16/9
    Frame rate : 23.976 fps
    Resolution : 24 bits
    Colorimetry : 4:2:0
    Scan type : Progressive
    Bits/(Pixel*Frame) : 0.272
    Stream size : 1.08 GiB (74%)
    Writing library : XviD 73
    Audio #1
    Format : AC-3
    Format/Info : Audio Coding 3
    Codec ID : 2000
    Duration : 1h 23mn
    Bit rate mode : Constant
    Bit rate : 448 Kbps
    Channel(s) : 6 channels
    Channel positions : Front: L C R, Surround: L R, LFE
    Sampling rate : 48.0 KHz
    Stream size : 269 MiB (18%)
    Alignment : Split accross interleaves
    Interleave, duration : 42 ms (1.00 video frame)
    Interleave, preload duration : 500 ms
    Audio #2
    Format : AC-3
    Format/Info : Audio Coding 3
    Codec ID : 2000
    Duration : 1h 23mn
    Bit rate mode : Constant
    Bit rate : 192 Kbps
    Channel(s) : 2 channels
    Channel positions : L R
    Sampling rate : 48.0 KHz
    Stream size : 115 MiB (8%)
    Alignment : Split accross interleaves
    Interleave, duration : 42 ms (1.00 video frame)
    Interleave, preload duration : 500 ms

    -

    Скриншоты

    -
    |
    |
    Скачать .torrent

    Скачать торрент-файл бесплатно и на максимальной скорости!

    Как скачивать? · Что такое торрент? · Рейтинг и ограничения

    !ВНИМАНИЕ!
    Сайт не распространяет и не хранит электронные версии произведений, а занимается лишь лишь предоставлением доступа к создаваемому пользователями каталогу ссылок на торрент-файлы, которые содержат только списки хеш-сумм, убедительная просьба с жалобами обращаться напрямую к пользователю. Файлы для обмена на трекере предоставлены пользователями сайта, и администрация не несёт ответственности за их содержание. Просьба не заливать файлы, защищенные авторскими правами, а также файлы нелегального содержания!


    _________________
    [Профиль] [ЛС]
    Показать сообщения:    
    Ответить на тему

    Текущее время: Сегодня, в 13:44

    Часовой пояс: GMT + 2



    Вы не можете начинать темы
    Вы не можете отвечать на сообщения
    Вы не можете редактировать свои сообщения
    Вы не можете удалять свои сообщения
    Вы не можете голосовать в опросах
    Вы не можете прикреплять файлы к сообщениям
    Вы не можете скачивать файлы