BitTorrentTracker PerecTracker.org
BitTorrentTracker PerecTracker.org
    
Регистрация  ·  Вход
 
 · 
Забыли пароль?

  • Так больше не может продолжаться! / Ca ne peut pas continuer comme ca! / We Can\'t Go on Like This! (Доминик Кабрера / Dominique Cabrera) [2012, Франция, трагикомедия, DVB] Original (Fre) + Sub (Rus, Eng, Fre, Deu)

    Ответить на тему
     
    Автор Сообщение

    Light

    Создавать темы 15-Апр-2016 19:04

           

    [Цитировать]

    Так больше не может продолжаться!
    Ça ne peut pas continuer comme ça!-Страна: Франция
    Жанр: трагикомедия
    Год выпуска: 2012
    Продолжительность: 01:25:49Перевод: Субтитры (перевод М.Лабори, Éclair Group)
    Cубтитры: русские, английские, французские, немецкие, нидердандские, румынские
    Оригинальная аудиодорожка: французский
    Режиссер: Доминик Кабрера / Dominique Cabrera
    В ролях: Орельен Рекуан / Aurélien Recoing (Vincent / Nuissbaum), Сильвия Берже / Sylvia Bergé (Laura Nuissbaum), Серж Багдассарян / Serge Bagdassarian (Lorenzo Stresi), Жиль Давид / Gilles David (Yves), Дени Подалиде / Denis Podalydès (Barry)
    Описание: Когда президент Республики узнает, что неизлечимо болен, он решает нанять театрального актера Венсана, чтобы заменить на публике первого человека в государстве…
    Доп. информация: Hot Bird (13.0°E) TV5MONDE Europe DVB-S
    Участник Festival la Première fois 2012.

    Качество видео: DVB
    Формат видео: MTS
    Видео: MPEG Video 2, 720x576@1024x576 (16:9), 25 fps, ~3257 kbps avg, 0.314 bit/pixel
    Аудио: MPEG Audio 2, 2 ch, 48 kHz, 192 kbps - французский
    Формат субтитров: PGS

    MediaInfo

    GeneralID : 1 (0x1)Complete name : [apreder]Ca_ne_peut_pas_continuer_comme_ca(2012)DVB.tsFormat : MPEG-TSFile size : 2.18 GiBDuration : 1h 25mnOverall bit rate mode : VariableOverall bit rate : 3 630 KbpsMaximum Overall bit rate : 35.5 Mbps
    VideoID : 4113 (0x1011)Menu ID : 1 (0x1)Format : MPEG VideoFormat version : Version 2Format profile : Main@MainFormat settings, BVOP : YesFormat settings, Matrix : CustomFormat settings, GOP : VariableFormat settings, picture structure : FrameCodec ID : 2Duration : 1h 25mnBit rate mode : VariableBit rate : 3 257 KbpsWidth : 720 pixelsHeight : 576 pixelsDisplay aspect ratio : 16:9Frame rate : 25.000 fpsStandard : PALColor space : YUVChroma subsampling : 4:2:0Bit depth : 8 bitsScan type : InterlacedScan order : Top Field FirstCompression mode : LossyBits/(Pixel*Frame) : 0.314Time code of first frame : 00:00:00:00Time code source : Group of pictures headerGOP, Open/Closed : OpenGOP, Open/Closed of first frame : ClosedStream size : 1.95 GiB (90%)
    AudioID : 4352 (0x1100)Menu ID : 1 (0x1)Format : MPEG AudioFormat version : Version 1Format profile : Layer 2Mode : Joint stereoMode extension : Intensity Stereo + MS StereoCodec ID : 4Duration : 1h 25mnBit rate mode : ConstantBit rate : 192 KbpsChannel(s) : 2 channelsSampling rate : 48.0 KHzCompression mode : LossyStream size : 118 MiB (5%)Language : French
    Text #1ID : 4608 (0x1200)Menu ID : 1 (0x1)Format : PGSCodec ID : 144Duration : 1h 25mnDelay relative to video : 2s 440msLanguage : Russian
    Text #2ID : 4609 (0x1201)Menu ID : 1 (0x1)Format : PGSCodec ID : 144Duration : 1h 25mnDelay relative to video : 2s 680msLanguage : English
    Text #3ID : 4610 (0x1202)Menu ID : 1 (0x1)Format : PGSCodec ID : 144Duration : 1h 25mnDelay relative to video : 14s 440msLanguage : French
    Text #4ID : 4611 (0x1203)Menu ID : 1 (0x1)Format : PGSCodec ID : 144Duration : 1h 25mnDelay relative to video : 2s 680msLanguage : German
    Text #5ID : 4612 (0x1204)Menu ID : 1 (0x1)Format : PGSCodec ID : 144Duration : 1h 25mnDelay relative to video : 2s 680msLanguage : Dutch
    Text #6ID : 4613 (0x1205)Menu ID : 1 (0x1)Format : PGSCodec ID : 144Duration : 1h 25mnDelay relative to video : 2s 680msLanguage : Romanian

    Скриншот c названием фильма

    Скриншоты

    Резервные скриншоты


    -[1'101]
    Скачать .torrent

    Скачать торрент-файл бесплатно и на максимальной скорости!

    Как скачивать? · Что такое торрент? · Рейтинг и ограничения

    !ВНИМАНИЕ!
    Сайт не распространяет и не хранит электронные версии произведений, а занимается лишь лишь предоставлением доступа к создаваемому пользователями каталогу ссылок на торрент-файлы, которые содержат только списки хеш-сумм, убедительная просьба с жалобами обращаться напрямую к пользователю. Файлы для обмена на трекере предоставлены пользователями сайта, и администрация не несёт ответственности за их содержание. Просьба не заливать файлы, защищенные авторскими правами, а также файлы нелегального содержания!


    _________________
    [Профиль] [ЛС]
    Показать сообщения:    
    Ответить на тему

    Текущее время: Сегодня, в 10:41

    Часовой пояс: GMT + 2



    Вы не можете начинать темы
    Вы не можете отвечать на сообщения
    Вы не можете редактировать свои сообщения
    Вы не можете удалять свои сообщения
    Вы не можете голосовать в опросах
    Вы не можете прикреплять файлы к сообщениям
    Вы не можете скачивать файлы