BitTorrentTracker PerecTracker.org
BitTorrentTracker PerecTracker.org
    
Регистрация  ·  Вход
 
 · 
Забыли пароль?

  • 128 ударов сердца в минуту / We Are Your Friends ( Макс Джозеф / Max Joseph) [2015,Великобритания, Франция, США , Драма, мелодрама, музыка, HDRip] DUB

    Ответить на тему
     
    Автор Сообщение

    Light

    Создавать темы 15-Апр-2016 10:40

           

    [Цитировать]

    128 ударов сердца в минуту / We Are Your Friends«Какой ритм у твоей мечты?»Страна: Великобритания, Франция, США
    Жанр: Драма, мелодрама, музыка
    Год выпуска: 2015
    Продолжительность: 01:36:03
    Перевод: Професссиональный (дулированный)
    Cубтитры: нет
    Оригинальная аудиодорожка: нет
    Режиссер: Макс Джозеф / Max Joseph
    В ролях: Зак Эфрон, Уэс Бентли, Эмили Ратаковски, Джонни Уэстон, Шайло Фернандес, Алекс Шеффер, Джон Бернтал, Алисия Коппола, Уайли М. Пикетт, Джон Абрахамс
    Описание: Лос-Анджелес, Калифорния — это мир бесконечных возможностей днем и нереальных голливудских вечеринок ночью. Оба этих мира стремится покорить молодой DJ по имени Коул, неустанно работающий над своим пробивным треком, который должен взорвать весь мир. Его замечает и берет под крыло опытный продюсер Джеймс, но все становится крайне запутанным, когда Коул влюбляется в молодую подружку Джеймса. Вскоре перед Коулом встает непростой выбор между любовью, верностью, старыми друзьями и будущим, о котором он так мечтает.
    Группа
    желает всем приятного просмотра!Качество видео: HDRip / BDRip (1080p)
    Формат видео: AVI
    Видео: 720x384 (1.88:1), 24 fps, XviD build 65 ~1759 kbps avg, 0.27 bit/pixel
    Аудио #1: 48 kHz, AC3 Dolby Digital, 3/2 (L,C,R,l,r) + LFE ch, ~384 kbps
    MediaInfo
    General
    Complete name : C:\Users\Никита\Desktop\кино.avi
    Format : AVI
    Format/Info : Audio Video Interleave
    File size : 1.44 GiB
    Duration : 1h 36mn
    Overall bit rate : 2 153 Kbps
    Writing application : VirtualDubMod 1.5.10.2 (build 2540/release)
    Writing library : VirtualDubMod build 2540/release
    Video
    ID : 0
    Format : MPEG-4 Visual
    Format profile : Advanced Simple@L5
    Format settings, BVOP : 2
    Format settings, QPel : No
    Format settings, GMC : No warppoints
    Format settings, Matrix : Custom
    Codec ID : XVID
    Codec ID/Hint : XviD
    Duration : 1h 36mn
    Bit rate : 1 760 Kbps
    Width : 720 pixels
    Height : 384 pixels
    Display aspect ratio : 1.85:1
    Frame rate : 24.000 fps
    Color space : YUV
    Chroma subsampling : 4:2:0
    Bit depth : 8 bits
    Scan type : Progressive
    Compression mode : Lossy
    Bits/(Pixel*Frame) : 0.265
    Stream size : 1.18 GiB (82%)
    Writing library : XviD 65
    Audio
    ID : 1
    Format : AC-3
    Format/Info : Audio Coding 3
    Mode extension : CM (complete main)
    Format settings, Endianness : Big
    Codec ID : 2000
    Duration : 1h 35mn
    Bit rate mode : Constant
    Bit rate : 384 Kbps
    Channel(s) : 6 channels
    Channel positions : Front: L C R, Side: L R, LFE
    Sampling rate : 48.0 KHz
    Frame rate : 31.250 fps (1536 spf)
    Compression mode : Lossy
    Stream size : 263 MiB (18%)
    Alignment : Split accross interleaves
    Interleave, duration : 42 ms (1.00 video frame)
    Interleave, preload duratio : 500 ms
    Скриншоты

    Скачать .torrent

    Скачать торрент-файл бесплатно и на максимальной скорости!

    Как скачивать? · Что такое торрент? · Рейтинг и ограничения

    !ВНИМАНИЕ!
    Сайт не распространяет и не хранит электронные версии произведений, а занимается лишь лишь предоставлением доступа к создаваемому пользователями каталогу ссылок на торрент-файлы, которые содержат только списки хеш-сумм, убедительная просьба с жалобами обращаться напрямую к пользователю. Файлы для обмена на трекере предоставлены пользователями сайта, и администрация не несёт ответственности за их содержание. Просьба не заливать файлы, защищенные авторскими правами, а также файлы нелегального содержания!


    _________________
    [Профиль] [ЛС]
    Показать сообщения:    
    Ответить на тему

    Текущее время: Сегодня, в 00:05

    Часовой пояс: GMT + 2



    Вы не можете начинать темы
    Вы не можете отвечать на сообщения
    Вы не можете редактировать свои сообщения
    Вы не можете удалять свои сообщения
    Вы не можете голосовать в опросах
    Вы не можете прикреплять файлы к сообщениям
    Вы не можете скачивать файлы