BitTorrentTracker PerecTracker.org
BitTorrentTracker PerecTracker.org
    
Регистрация  ·  Вход
 
 · 
Забыли пароль?

  • 128 ударов сердца в минуту / We Are Your Friends (Макс Джозеф / Max Joseph) [2015, Великобритания, Франция, США, Драма, мелодрама, музыка, BDRip] Dub (iTunes)

    Ответить на тему
     
    Автор Сообщение

    Light

    Создавать темы 14-Апр-2016 22:20

           

    [Цитировать]

    128 ударов сердца в минуту / We Are Your Friends
    Страна: Великобритания, Франция, США
    Жанр: Драма, мелодрама, музыка
    Год выпуска: 2015
    Продолжительность: 01:36:03
    Перевод: Профессиональный (дублированный) - iTunes
    Cубтитры: нет
    Оригинальная аудиодорожка: нет-Режиссер: Макс Джозеф / Max Joseph-В ролях: Зак Эфрон, Уэс Бентли, Эмили Ратаковски, Джонни Уэстон, Шайло Фернандес, Алекс Шеффер, Джон Бернтал, Алисия Коппола, Уайли М. Пикетт, Джон Абрахамс-Описание: Лос-Анджелес, Калифорния — это мир бесконечных возможностей днем и нереальных голливудских вечеринок ночью. Оба этих мира стремится покорить молодой DJ по имени Коул, неустанно работающий над своим пробивным треком, который должен взорвать весь мир. Его замечает и берет под крыло опытный продюсер Джеймс, но все становится крайне запутанным, когда Коул влюбляется в молодую подружку Джеймса. Вскоре перед Коулом встает непростой выбор между любовью, верностью, старыми друзьями и будущим, о котором он так мечтает.-
    -Качество видео: BDRip | We Are Your Friends (2015) Blu-ray Disc -BLUEBIRD
    Формат видео: AVI
    Видео: 688x368 (1.87:1), 24.000 fps, XviD build 73 ~949 kbps avg, 0.16 bit/pixel
    Аудио: 48 kHz, MPEG Layer 3, 2 ch, ~128.00 kbps avg-Сэмпл

    MediaInfo

    Format                      : AVI
    Format/Info                 : Audio Video Interleave
    File size                   : 747 MiB
    Duration                    : 1h 36mn
    Overall bit rate            : 1 087 Kbps
    Writing application         : VirtualDubMod 1.5.10.3 | www.virtualdub-fr.org || (build 2550/release)
    Writing library             : VirtualDubMod build 2550/release
    Video
    ID                          : 0
    Format                      : MPEG-4 Visual
    Format profile              : Advanced Simple@L5
    Format settings, BVOP       : 1
    Format settings, QPel       : No
    Format settings, GMC        : No warppoints
    Format settings, Matrix     : Custom
    Codec ID                    : XVID
    Codec ID/Hint               : XviD
    Duration                    : 1h 36mn
    Bit rate                    : 950 Kbps
    Width                       : 688 pixels
    Height                      : 368 pixels
    Display aspect ratio        : 1.85:1
    Frame rate                  : 24.000 fps
    Color space                 : YUV
    Chroma subsampling          : 4:2:0
    Bit depth                   : 8 bits
    Scan type                   : Progressive
    Compression mode            : Lossy
    Bits/(Pixel*Frame)          : 0.156
    Stream size                 : 652 MiB (87%)
    Writing library             : XviD 73
    Audio
    ID                          : 1
    Format                      : MPEG Audio
    Format version              : Version 1
    Format profile              : Layer 3
    Codec ID                    : 55
    Codec ID/Hint               : MP3
    Duration                    : 1h 36mn
    Bit rate mode               : Constant
    Bit rate                    : 128 Kbps
    Channel(s)                  : 2 channels
    Sampling rate               : 48.0 KHz
    Compression mode            : Lossy
    Stream size                 : 87.9 MiB (12%)
    Alignment                   : Aligned on interleaves
    Interleave, duration        : 42 ms (1.00 video frame)
    Interleave, preload duratio : 504 ms
    Writing library             : LAME3.99r
    Encoding settings           : -m s -V 4 -q 2 -lowpass 17 -b 128

    Скриншоты

    Скачать .torrent

    Скачать торрент-файл бесплатно и на максимальной скорости!

    Как скачивать? · Что такое торрент? · Рейтинг и ограничения

    !ВНИМАНИЕ!
    Сайт не распространяет и не хранит электронные версии произведений, а занимается лишь лишь предоставлением доступа к создаваемому пользователями каталогу ссылок на торрент-файлы, которые содержат только списки хеш-сумм, убедительная просьба с жалобами обращаться напрямую к пользователю. Файлы для обмена на трекере предоставлены пользователями сайта, и администрация не несёт ответственности за их содержание. Просьба не заливать файлы, защищенные авторскими правами, а также файлы нелегального содержания!


    _________________
    [Профиль] [ЛС]
    Показать сообщения:    
    Ответить на тему

    Текущее время: Сегодня, в 16:34

    Часовой пояс: GMT + 2



    Вы не можете начинать темы
    Вы не можете отвечать на сообщения
    Вы не можете редактировать свои сообщения
    Вы не можете удалять свои сообщения
    Вы не можете голосовать в опросах
    Вы не можете прикреплять файлы к сообщениям
    Вы не можете скачивать файлы