BitTorrentTracker PerecTracker.org
BitTorrentTracker PerecTracker.org
    
Регистрация  ·  Вход
 
 · 
Забыли пароль?

  • [ATV3] Экстрасенсы / Solace (Афонсо Пойарт / Afonso Poyart ) [2015, США, Триллер, драма, криминал, детектив, BDRip, HD (1080p)] DUB + Original + sub (eng)

    Ответить на тему
     
    Автор Сообщение

    rechyn

    Создавать темы 14-Апр-2016 22:20

           

    [Цитировать]

    Экстрасенсы / Solace
    -
    6.533 / 10 6.40 / 10
    -Год выпуска: 2015
    Страна: США
    Жанр: Триллер, драма, криминал, детектив
    Продолжительность: 01:41:12
    Перевод: Дублированный (iTunes)
    Оригинальная аудиодорожка: Есть
    Cубтитры: Английские, Английские SDH
    Режиссёр: Афонсо Пойарт
    Сценарий: Шон Бэйли, Тед Гриффин
    Продюсер: Томас Огсбергер, Клаудия Блюмхубер, Маттиас Эмке
    Оператор: Брендан Гэлвин
    Композитор: Брайан Трансо
    Художник: Брэд Рикер, Камерон Бисли, Денис Уингейт
    Монтаж: Лукас Гонзага
    В ролях: Энтони Хопкинс, Колин Фаррелл, Джеффри Дин Морган, Эбби Корниш, Марли Шелтон, Мэтт Джералд, Джанин Тернер, Ксандер Беркли, Кенни Джонсон, Шэрон Лоуренс
    Бюджет: 40 000 000
    Сборы в мире: $22 354 572
    Сборы в России: $422 153
    Мировая премьера: 3 сентября 2015
    Премьера (РФ): 31 марта 2016, «Вольга»
    Описание: Джон Клэнси, экстрасенс, много раз помогавший ФБР в расследованиях неразрешимых преступлений, сталкивается с самым опасным делом в своей жизни. Его способность видеть прошлое оказывается бессильна перед новым противником — хладнокровным убийцей, который способен предвидеть будущее. Теперь, чтобы остановить серию убийств, Джон должен вступить в неравную схватку с расчётливым маньяком и найти способ загнать в ловушку того, кто всегда на десять шагов впереди.-Качество исходника: Blu-Ray (BlueBird)
    Качество: BDRip
    Тип: HD (1080p)
    Контейнер: M4V
    Видео: H.264, 1920x800, 2.40:1, 8 000 Kbps, 23.976 (24000/1001) fps
    Аудио 1: Русский/Дублированный (iTunes), AAC / 2.0 / 158 Kbps / 48.0 KHz
    Аудио 2: Английский/Оригинальная дорожка , AAC / 2.0 / 158 Kbps / 48.0 KHz
    Аудио 3: Русский/Дублированный (iTunes), AC-3 / 5.1 / 384 Kbps / 48.0 KHz
    Аудио 4: Английский/Оригинальная дорожка , AC-3 / 5.1 / 640 Kbps / 48.0 KHz
    Субтитры 1: Английские полные
    Субтитры 2: Английские SDH
    -

    iTunes Meta Tags

    Sort Name: Solace
    XID: Apple:vendor_id:2015-463070
    contentID: 750409835
    Screenwriters: Шон Бэйли, Тед Гриффин
    Producers: Томас Огсбергер, Клаудия Блюмхубер, Маттиас Эмке
    Director: Афонсо Пойарт
    Cast: Джеффри Дин Морган, Колин Фаррелл, Энтони Хопкинс, Эбби Корниш, Марли Шелтон, Джанин Тернер, Ксандер Беркли, Кенни Джонсон, Хосе Пабло Кантильо, Джошуа Клоуз
    Studio: FilmBuff
    Rating: 0
    Long Description: Напарники, Джо и Кэтрин, детективы из ФБР расследуют череду загадочных убийств. Все преступления объединяет нечто сверхъестественное - серийный убийца всегда на шаг впереди лучших сыщиков. Тогда на помощь правосудию приходит отставной аналитик спецслужб доктор Джон Кленси. Его исключительная интуиция и интеллект могут помочь поймать убийцу, но вскоре Джон понимает - его соперник значительно превосходит его в способностях.
    Description: Напарники, Джо и Кэтрин, детективы из ФБР расследуют череду загадочных убийств. Все преступления объединяет нечто сверхъестественное - серийный убийца всегда на шаг впереди лучших сыщиков. Тогда на помощь правосудию приходит отставной аналитик спецслужб доктор Джон Кленси. Его исключительная интуиция и интеллект могут помочь поймать убийцу, но вскоре Джон понимает - его соперник значительно превосходит его в способностях.
    Release Date: 2015-09-03T08:00:00Z
    Genre: Thriller
    Artist: Afonso Poyart
    Name: Solace

    MediaInfo

    General
    Complete name : /Users/imac/HandBrake/Solace (1080p HD).m4v
    Format : MPEG-4
    Codec ID : M4V  (M4V /M4A /mp42/isom)
    File size : 6.60 GiB
    Duration : 1h 41mn
    Overall bit rate mode : Variable
    Overall bit rate : 9 344 Kbps
    Movie name : Solace
    Performer : Afonso Poyart
    Director : Афонсо Пойарт
    Actor : Джеффри Дин Морган / Колин Фаррелл / Энтони Хопкинс / Эбби Корниш / Марли Шелтон / Джанин Тернер / Ксандер Беркли / Кенни Джонсон / Хосе Пабло Кантильо / Джошуа Клоуз
    Screenplay by : Шон Бэйли / Тед Гриффин
    Producer : Томас Огсбергер / Клаудия Блюмхубер / Маттиас Эмке
    Production studio : FilmBuff
    Genre : Thriller
    ContentType : Short Film
    Description : Напарники, Джо и Кэтрин, детективы из ФБР расследуют череду загадочных убийств. Все преступления объединяет нечто сверхъестественное - серийный убийца всегда на шаг впереди лучших сыщиков. Тогда на помощь правосудию приходит отставной аналитик спецслужб доктор Джон Кленси. Его исключительная интуиция и интеллект могут помочь поймать убийцу, но вскоре Джон понимает - его соперник значительно превосходит его в способностях.
    Recorded date : UTC 2015-09-03 08:00:00
    Encoded date : UTC 2016-04-14 16:29:31
    Tagged date : UTC 2016-04-14 16:32:55
    Cover : Yes
    Rating : None
    Title/Sort : Solace
    LongDescription : Напарники, Джо и Кэтрин, детективы из ФБР расследуют череду загадочных убийств. Все преступления объединяет нечто сверхъестественное - серийный убийца всегда на шаг впереди лучших сыщиков. Тогда на помощь правосудию приходит отставной аналитик спецслужб доктор Джон Кленси. Его исключительная интуиция и интеллект могут помочь поймать убийцу, но вскоре Джон понимает - его соперник значительно превосходит его в способностях.
    AppleStoreCatalogID : 750409835
    Vendor : Apple:vendor_id:2015-463070
    ContentRating : mpaa|Unrated|???|
    Video #1
    ID : 1
    Format : AVC
    Format/Info : Advanced Video Codec
    Format profile : High@L4
    Format settings, CABAC : Yes
    Format settings, ReFrames : 4 frames
    Codec ID : avc1
    Codec ID/Info : Advanced Video Coding
    Duration : 1h 41mn
    Source duration : 1h 41mn
    Bit rate : 8 000 Kbps
    Width : 1 920 pixels
    Height : 800 pixels
    Display aspect ratio : 2.40:1
    Frame rate mode : Variable
    Frame rate : 23.976 (24000/1001) fps
    Minimum frame rate : 23.974 fps
    Maximum frame rate : 23.981 fps
    Color space : YUV
    Chroma subsampling : 4:2:0
    Bit depth : 8 bits
    Scan type : Progressive
    Bits/(Pixel*Frame) : 0.217
    Stream size : 5.65 GiB (86%)
    Source stream size : 5.65 GiB (86%)
    Title : Main Program
    Writing library : x264 core 142 r2479 dd79a61
    Encoding settings : cabac=1 / ref=4 / deblock=1:-2:-2 / analyse=0x3:0x133 / me=umh / subme=10 / psy=1 / psy_rd=1.00:0.15 / mixed_ref=1 / me_range=32 / chroma_me=1 / trellis=2 / 8x8dct=1 / cqm=0 / deadzone=21,11 / fast_pskip=0 / chroma_qp_offset=-3 / threads=36 / lookahead_threads=6 / sliced_threads=0 / nr=0 / decimate=0 / interlaced=0 / bluray_compat=0 / constrained_intra=0 / bframes=16 / b_pyramid=2 / b_adapt=2 / b_bias=0 / direct=3 / weightb=1 / open_gop=0 / weightp=2 / keyint=240 / keyint_min=24 / scenecut=40 / intra_refresh=0 / rc_lookahead=60 / rc=2pass / mbtree=1 / bitrate=8000 / ratetol=1.0 / qcomp=0.70 / qpmin=0 / qpmax=69 / qpstep=4 / cplxblur=20.0 / qblur=0.5 / vbv_maxrate=25000 / vbv_bufsize=25000 / nal_hrd=none / filler=0 / ip_ratio=1.40 / aq=1:1.00
    Language : English
    Encoded date : UTC 2016-04-14 16:29:31
    Tagged date : UTC 2016-04-14 16:29:43
    Color range : Limited
    Color primaries : BT.709
    Transfer characteristics : BT.709
    Matrix coefficients : BT.709
    Menus : 8,9
    Video #2
    ID : 9
    Format : JPEG
    Codec ID : jpeg
    Duration : 1h 41mn
    Bit rate mode : Variable
    Bit rate : 454 bps
    Width : 640 pixels
    Height : 266 pixels
    Display aspect ratio : 2.40:1
    Frame rate mode : Variable
    Frame rate : 0.002 fps
    Minimum frame rate : 0.001 fps
    Maximum frame rate : 0.005 fps
    Color space : YUV
    Chroma subsampling : 4:2:0
    Bit depth : 8 bits
    Compression mode : Lossy
    Bits/(Pixel*Frame) : 1.333
    Stream size : 332 KiB (0%)
    Title : Chapter Images
    Language : English
    Default : No
    Encoded date : UTC 2016-04-14 16:29:50
    Tagged date : UTC 2016-04-14 16:29:50
    Menu For : 1
    Audio #1
    ID : 2
    Format : AAC
    Format/Info : Advanced Audio Codec
    Format profile : LC
    Codec ID : 40
    Duration : 1h 41mn
    Bit rate mode : Variable
    Bit rate : 158 Kbps
    Maximum bit rate : 221 Kbps
    Channel(s) : 2 channels
    Channel positions : Front: L R
    Sampling rate : 48.0 KHz
    Frame rate : 46.875 fps (1024 spf)
    Compression mode : Lossy
    Stream size : 114 MiB (2%)
    Title : Russian Stereo
    Language : Russian
    Default : Yes
    Alternate group : 1
    Encoded date : UTC 2016-04-14 16:29:31
    Tagged date : UTC 2016-04-14 16:29:44
    Fallback From : 4
    Menus : 8
    Audio #2
    ID : 3
    Format : AAC
    Format/Info : Advanced Audio Codec
    Format profile : LC
    Codec ID : 40
    Duration : 1h 41mn
    Bit rate mode : Variable
    Bit rate : 158 Kbps
    Maximum bit rate : 252 Kbps
    Channel(s) : 2 channels
    Channel positions : Front: L R
    Sampling rate : 48.0 KHz
    Frame rate : 46.875 fps (1024 spf)
    Compression mode : Lossy
    Stream size : 115 MiB (2%)
    Title : English Stereo
    Language : English
    Default : No
    Alternate group : 1
    Encoded date : UTC 2016-04-14 16:29:31
    Tagged date : UTC 2016-04-14 16:29:44
    Fallback From : 5
    Audio #3
    ID : 4
    Format : AC-3
    Format/Info : Audio Coding 3
    Mode extension : CM (complete main)
    Format settings, Endianness : Big
    Codec ID : ac-3
    Duration : 1h 41mn
    Bit rate mode : Constant
    Bit rate : 384 Kbps
    Channel(s) : 6 channels
    Channel positions : Front: L C R, Side: L R, LFE
    Sampling rate : 48.0 KHz
    Frame rate : 31.250 fps (1536 spf)
    Bit depth : 16 bits
    Compression mode : Lossy
    Stream size : 278 MiB (4%)
    Title : Russian DD 5.1
    Language : Russian
    Default : Inherited From: 2
    Alternate group : 1
    Encoded date : UTC 2016-04-14 16:29:31
    Tagged date : UTC 2016-04-14 16:29:39
    Fallback To : 2
    Audio #4
    ID : 5
    Format : AC-3
    Format/Info : Audio Coding 3
    Mode extension : CM (complete main)
    Format settings, Endianness : Big
    Codec ID : ac-3
    Duration : 1h 41mn
    Bit rate mode : Constant
    Bit rate : 640 Kbps
    Channel(s) : 6 channels
    Channel positions : Front: L C R, Side: L R, LFE
    Sampling rate : 48.0 KHz
    Frame rate : 31.250 fps (1536 spf)
    Bit depth : 16 bits
    Compression mode : Lossy
    Stream size : 463 MiB (7%)
    Title : English DD 5.1
    Language : English
    Default : No
    Alternate group : 1
    Encoded date : UTC 2016-04-14 16:29:31
    Tagged date : UTC 2016-04-14 16:29:39
    Fallback To : 3
    Text #1
    ID : 6
    Format : Timed Text
    Muxing mode : sbtl
    Codec ID : tx3g
    Duration : 1h 34mn
    Bit rate mode : Variable
    Bit rate : 54 bps
    Stream size : 37.3 KiB (0%)
    Title : English full
    Language : English
    Default : Yes
    Forced : No
    Alternate group : 2
    Encoded date : UTC 2016-04-14 16:29:31
    Tagged date : UTC 2016-04-14 16:29:31
    Text #2
    ID : 7
    Format : Timed Text
    Muxing mode : sbtl
    Codec ID : tx3g
    Duration : 1h 34mn
    Bit rate mode : Variable
    Bit rate : 60 bps
    Stream size : 41.7 KiB (0%)
    Title : English SDH
    Language : English
    Default : No
    Forced : No
    Alternate group : 2
    Encoded date : UTC 2016-04-14 16:29:31
    Tagged date : UTC 2016-04-14 16:29:31
    Menu #1
    00:00:00.000 : Chapter 1
    00:09:13.511 : Chapter 2
    00:16:38.372 : Chapter 3
    00:20:26.559 : Chapter 4
    00:30:19.943 : Chapter 5
    00:39:57.645 : Chapter 6
    00:46:02.551 : Chapter 7
    01:00:26.832 : Chapter 8
    01:04:05.884 : Chapter 9
    01:11:37.210 : Chapter 10
    01:18:46.722 : Chapter 11
    01:22:42.624 : Chapter 12
    Menu #2
    ID : 8
    Codec ID : text
    Duration : 1h 41mn
    Language : English
    Encoded date : UTC 2016-04-14 16:29:45
    Tagged date : UTC 2016-04-14 16:29:45
    Menu For : 2,1
    00:00:00.000 : Chapter 1
    00:09:13.511 : Chapter 2
    00:16:38.372 : Chapter 3
    00:20:26.559 : Chapter 4
    00:30:19.943 : Chapter 5
    00:39:57.645 : Chapter 6
    00:46:02.551 : Chapter 7
    01:00:26.832 : Chapter 8
    01:04:05.884 : Chapter 9
    01:11:37.210 : Chapter 10
    01:18:46.722 : Chapter 11
    01:22:42.624 : Chapter 12
    Bit rate mode : VBR

    x264 лог

    x264 [info]: frame I:892   Avg QP:15.19  size:166054
    x264 [info]: frame P:34500 Avg QP:18.21  size: 61025
    x264 [info]: frame B:110185 Avg QP:18.66  size: 34618
    x264 [info]: consecutive B-frames:  3.9%  4.6% 11.7% 13.3% 11.7% 43.3%  5.2%  0.5%  1.3%  0.4%  1.1%  0.5%  0.6%  0.2%  0.3%  0.2%  1.0%
    x264 [info]: mb I  I16..4: 22.8% 63.1% 14.1%
    x264 [info]: mb P  I16..4:  8.6% 25.5%  1.9%  P16..4: 34.7% 11.9%  8.1%  0.2%  0.1%    skip: 9.1%
    x264 [info]: mb B  I16..4:  1.8%  3.7%  0.2%  B16..8: 39.5%  7.5%  1.7%  direct:14.3%  skip:31.3%  L0:44.6% L1:47.0% BI: 8.4%
    x264 [info]: 8x8 transform intra:68.5% inter:67.9%
    x264 [info]: direct mvs  spatial:98.7% temporal:1.3%
    x264 [info]: coded y,uvDC,uvAC intra: 77.9% 59.3% 28.3% inter: 36.8% 30.6% 5.3%
    x264 [info]: i16 v,h,dc,p: 22% 13% 32% 34%
    x264 [info]: i8 v,h,dc,ddl,ddr,vr,hd,vl,hu: 10%  9% 16%  9% 12% 11% 11% 10% 11%
    x264 [info]: i4 v,h,dc,ddl,ddr,vr,hd,vl,hu: 12% 12% 16%  8% 12% 11% 11%  9% 11%
    x264 [info]: i8c dc,h,v,p: 48% 24% 20%  8%
    x264 [info]: Weighted P-Frames: Y:2.5% UV:1.1%
    x264 [info]: ref P L0: 55.4% 10.7% 21.8% 10.8%  1.4%  0.0%
    x264 [info]: ref B L0: 84.8% 12.5%  2.7%
    x264 [info]: ref B L1: 90.7%  9.3%
    x264 [info]: kb/s:7994.92

    Скриншоты

    -

    Релиз подготовлен для просмотра на Apple TV, iPad, iPhone, iPod Touch.
    Для просмотра данного релиза на компьютере с ОС Windows рекомендуется использовать VLC media player
    Скачать .torrent

    Скачать торрент-файл бесплатно и на максимальной скорости!

    Как скачивать? · Что такое торрент? · Рейтинг и ограничения

    !ВНИМАНИЕ!
    Сайт не распространяет и не хранит электронные версии произведений, а занимается лишь лишь предоставлением доступа к создаваемому пользователями каталогу ссылок на торрент-файлы, которые содержат только списки хеш-сумм, убедительная просьба с жалобами обращаться напрямую к пользователю. Файлы для обмена на трекере предоставлены пользователями сайта, и администрация не несёт ответственности за их содержание. Просьба не заливать файлы, защищенные авторскими правами, а также файлы нелегального содержания!


    _________________
    [Профиль] [ЛС]
    Показать сообщения:    
    Ответить на тему

    Текущее время: Сегодня, в 01:14

    Часовой пояс: GMT + 2



    Вы не можете начинать темы
    Вы не можете отвечать на сообщения
    Вы не можете редактировать свои сообщения
    Вы не можете удалять свои сообщения
    Вы не можете голосовать в опросах
    Вы не можете прикреплять файлы к сообщениям
    Вы не можете скачивать файлы