BitTorrentTracker PerecTracker.org
BitTorrentTracker PerecTracker.org
    
Регистрация  ·  Вход
 
 · 
Забыли пароль?

  • Экстрасенсы / Solace (Афонсо Пойарт / Afonso Poyart) [2015, США, триллер, драма, детектив, BDRip-AVC] Dub

    Ответить на тему
     
    Автор Сообщение

    Light

    Создавать темы 14-Апр-2016 22:20

           

    [Цитировать]

    Экстрасенсы / Solace-Страна: США
    Жанр: триллер, драма, детектив
    Год выпуска: 2015
    Продолжительность: 01:41:12
    Перевод: Профессиональный (полное дублирование) (iTunes)
    Навигация по главам: есть
    Режиссер: Афонсо Пойарт / Afonso Poyart
    В ролях: Энтони Хопкинс, Джеффри Дин Морган, Колин Фаррелл, Эбби Корниш, Марли Шелтон, Джанин Тёрнер, Ксандер Беркли, Кенни Джонсон, Хосе Пабло Кантилльо, Джошуа Клоуз
    Описание: Напарники, Джо и Кэтрин, детективы из ФБР расследуют череду загадочных убийств. Все преступления объединяет нечто сверхъестественное — серийный убийца всегда на шаг впереди лучших сыщиков. Тогда на помощь правосудию приходит отставной аналитик спецслужб доктор Джон Кленси. Его исключительная интуиция и интеллект могут помочь поймать убийцу, но вскоре Джон понимает — его соперник значительно превосходит его в способностях.

    Качество видео: BDRip-AVC (исходник - Blu-ray|SOLACE_BLUEBIRD)
    Формат видео: MKV
    Видео: x264, 1056x440 (2.40:1), 23,976 fps, ~1690 kbps, 0.152 bit/pixel
    Аудио: 48 kHz, AC3 Dolby Digital, 3/2 (L,C,R,l,r) + LFE ch, ~384 kbps
    MediaInfo | x264 log
    Format : Matroska
    Format version : Version 4 / Version 2
    File size : 1.46 GiB
    Duration : 1h 41mn
    Overall bit rate : 2 071 Kbps
    Movie name : Экстрасенсы / Solace (2015) :: AFM ::
    Encoded date : UTC 2016-04-14 13:35:49
    Writing application : mkvmerge v8.3.0 ('Over the Horizon') 32bit
    Writing library : libebml v1.3.1 + libmatroska v1.4.2
    Video
    ID : 1
    Format : AVC
    Format/Info : Advanced Video Codec
    Format profile : High@L4.1
    Format settings, CABAC : Yes
    Format settings, ReFrames : 11 frames
    Codec ID : V_MPEG4/ISO/AVC
    Duration : 1h 41mn
    Bit rate : 1 690 Kbps
    Width : 1 056 pixels
    Height : 440 pixels
    Display aspect ratio : 2.40:1
    Frame rate mode : Constant
    Frame rate : 23.976 fps
    Color space : YUV
    Chroma subsampling : 4:2:0
    Bit depth : 8 bits
    Scan type : Progressive
    Bits/(Pixel*Frame) : 0.152
    Stream size : 1.16 GiB (79%)
    Title : BDRip by AFM [RuTracker.org]
    Writing library : x264 core 148 r2665+53 6629127 t_mod_Custom [8-bit@all X86_64]
    Encoding settings : cabac=1 / ref=11 / deblock=1:-2:-2 / analyse=0x3:0x113 / me=umh / subme=10 / psy=1 / fade_compensate=0.00 / psy_rd=1.00:0.00 / mixed_ref=1 / me_range=32 / chroma_me=1 / trellis=2 / 8x8dct=1 / cqm=0 / deadzone=21,11 / fast_pskip=0 / chroma_qp_offset=-2 / threads=6 / lookahead_threads=1 / sliced_threads=0 / nr=0 / decimate=0 / interlaced=0 / bluray_compat=0 / constrained_intra=0 / fgo=0 / bframes=14 / b_pyramid=2 / b_adapt=2 / b_bias=0 / direct=3 / weightb=1 / open_gop=0 / weightp=2 / keyint=250 / keyint_min=23 / scenecut=40 / intra_refresh=0 / rc_lookahead=40 / rc=2pass / mbtree=0 / bitrate=1690 / ratetol=1.0 / qcomp=0.65 / qpmin=0:0:0 / qpmax=69:69:69 / qpstep=4 / cplxblur=20.0 / qblur=0.5 / vbv_maxrate=50000 / vbv_bufsize=62500 / nal_hrd=none / filler=0 / ip_ratio=1.30 / pb_ratio=1.28 / aq=3:0.90 / aq-sensitivity=10.00 / aq-factor=1.00:1.00:1.00 / aq2=0 / aq3=0
    Language : English
    Default : Yes
    Forced : No
    Audio
    ID : 2
    Format : AC-3
    Format/Info : Audio Coding 3
    Mode extension : CM (complete main)
    Format settings, Endianness : Big
    Codec ID : A_AC3
    Duration : 1h 41mn
    Bit rate mode : Constant
    Bit rate : 384 Kbps
    Channel(s) : 6 channels
    Channel positions : Front: L C R, Side: L R, LFE
    Sampling rate : 48.0 KHz
    Compression mode : Lossy
    Stream size : 278 MiB (19%)
    Title : Dub, AC3 5.1 ~384 kbps
    Language : Russian
    Default : Yes
    Forced : No
    Menu
    00:00:00.000 : en:Chapter 1
    00:09:13.428 : en:Chapter 2
    00:16:38.289 : en:Chapter 3
    00:20:26.475 : en:Chapter 4
    00:30:19.860 : en:Chapter 5
    00:39:57.562 : en:Chapter 6
    00:46:02.468 : en:Chapter 7
    01:00:26.748 : en:Chapter 8
    01:04:05.800 : en:Chapter 9
    01:11:37.126 : en:Chapter 10
    01:18:46.639 : en:Chapter 11
    01:22:42.541 : en:Chapter 12

    x264

    x264 [info]: frame I:1136 Avg QP:13.90 size: 53430
    x264 [info]: frame P:32688 Avg QP:17.03 size: 18272
    x264 [info]: frame B:111752 Avg QP:18.23 size: 5558
    x264 [info]: consecutive B-frames: 3.4% 3.9% 9.7% 13.0% 17.2% 36.5% 6.7% 1.3% 2.8% 0.7% 1.2% 0.8% 0.9% 0.5% 1.4%
    x264 [info]: mb I I16..4: 9.2% 75.7% 15.0%
    x264 [info]: mb P I16..4: 2.8% 14.0% 2.2% P16..4: 37.0% 24.8% 11.3% 0.0% 0.0% skip: 7.8%
    x264 [info]: mb B I16..4: 0.2% 0.7% 0.1% B16..8: 39.2% 11.6% 2.6% direct: 5.3% skip:40.2% L0:44.8% L1:46.2% BI: 9.0%
    x264 [info]: 8x8 transform intra:73.1% inter:63.1%
    x264 [info]: direct mvs spatial:98.1% temporal:1.9%
    x264 [info]: coded y,uvDC,uvAC intra: 75.8% 67.0% 40.2% inter: 21.9% 17.9% 5.7%
    x264 [info]: i16 v,h,dc,p: 34% 17% 7% 42%
    x264 [info]: i8 v,h,dc,ddl,ddr,vr,hd,vl,hu: 13% 11% 10% 9% 12% 11% 12% 10% 12%
    x264 [info]: i4 v,h,dc,ddl,ddr,vr,hd,vl,hu: 13% 13% 6% 9% 14% 12% 12% 10% 12%
    x264 [info]: i8c dc,h,v,p: 42% 28% 18% 12%
    x264 [info]: Weighted P-Frames: Y:97.7% UV:1.4%
    x264 [info]: ref P L0: 49.7% 10.0% 16.0% 6.4% 5.1% 3.5% 3.0% 1.8% 1.6% 1.4% 1.3% 0.2% 0.0%
    x264 [info]: ref B L0: 69.7% 12.8% 6.4% 3.4% 2.5% 1.9% 1.5% 1.0% 0.6% 0.2%
    x264 [info]: ref B L1: 91.4% 8.6%
    x264 [info]: kb/s:1685.25

    Скриншоты

    с названием

    Скачать .torrent

    Скачать торрент-файл бесплатно и на максимальной скорости!

    Как скачивать? · Что такое торрент? · Рейтинг и ограничения

    !ВНИМАНИЕ!
    Сайт не распространяет и не хранит электронные версии произведений, а занимается лишь лишь предоставлением доступа к создаваемому пользователями каталогу ссылок на торрент-файлы, которые содержат только списки хеш-сумм, убедительная просьба с жалобами обращаться напрямую к пользователю. Файлы для обмена на трекере предоставлены пользователями сайта, и администрация не несёт ответственности за их содержание. Просьба не заливать файлы, защищенные авторскими правами, а также файлы нелегального содержания!


    _________________
    [Профиль] [ЛС]
    Показать сообщения:    
    Ответить на тему

    Текущее время: Сегодня, в 00:24

    Часовой пояс: GMT + 2



    Вы не можете начинать темы
    Вы не можете отвечать на сообщения
    Вы не можете редактировать свои сообщения
    Вы не можете удалять свои сообщения
    Вы не можете голосовать в опросах
    Вы не можете прикреплять файлы к сообщениям
    Вы не можете скачивать файлы